×

¿Problemas para descargar con Mozilla, EDGE? Deshabilita la opción "Abrir vinculos en una pestaña nueva" tal como lo muestra ésta imagen.

The Majestic (2001) REMUX 1080p Latino – CMHDD

208 vistas

Información de The Majestic (2001) REMUX 1080p Latino – CMHDD

Datos de la película

  • Calidad: Full 1080p
  • Audio: Español Latino AC3 2.0 BLURAY - Ingles DTS 5.1 BLURAY
  • Subtitulos: Español Latino PGS
  • Resolución: 1920x1080p
  • Formato: MKV
  • Codec: H.264
  • Encoder: Dracarys
  • Mediainfo: Clic para Mostrar Datos Ver
  • Format                      : Matroska
    Format version              : Version 4
    File size                   : 29.3 GiB
    Duration                    : 2 h 32 min
    Overall bit rate mode       : Variable
    Overall bit rate            : 27.5 Mb/s
    Movie name                  : The Majestic (2001) REMUX 1080p Latino - CMHDD
    Encoded date                : UTC 2021-03-14 12:59:09
    Writing application         : mkvmerge v51.0.0 ('I Wish') 64-bit
    Writing library             : libebml v1.4.0 + libmatroska v1.6.2
    Cover                       : Yes
    Attachments                 : cover.jpg

    Video
    ID                          : 1
    ID in the original source m : 4113 (0x1011)
    Format                      : AVC
    Format/Info                 : Advanced Video Codec
    Format profile              : High@L4.1
    Format settings             : CABAC / 2 Ref Frames
    Format settings, CABAC      : Yes
    Format settings, Reference  : 2 frames
    Codec ID                    : V_MPEG4/ISO/AVC
    Duration                    : 2 h 32 min
    Bit rate mode               : Variable
    Bit rate                    : 23.9 Mb/s
    Width                       : 1 920 pixels
    Height                      : 1 080 pixels
    Display aspect ratio        : 16:9
    Frame rate mode             : Constant
    Frame rate                  : 23.976 (24000/1001) FPS
    Color space                 : YUV
    Chroma subsampling          : 4:2:0
    Bit depth                   : 8 bits
    Scan type                   : Progressive
    Bits/(Pixel*Frame)          : 0.482
    Stream size                 : 25.6 GiB (87%)
    Default                     : Yes
    Forced                      : No
    Original source medium      : Blu-ray

    Audio #1
    ID                          : 2
    ID in the original source m : 4356 (0x1104)
    Format                      : AC-3
    Format/Info                 : Audio Coding 3
    Commercial name             : Dolby Digital
    Codec ID                    : A_AC3
    Duration                    : 2 h 32 min
    Bit rate mode               : Constant
    Bit rate                    : 192 kb/s
    Channel(s)                  : 2 channels
    Channel layout              : L R
    Sampling rate               : 48.0 kHz
    Frame rate                  : 31.250 FPS (1536 SPF)
    Compression mode            : Lossy
    Stream size                 : 210 MiB (1%)
    Language                    : Spanish
    Service kind                : Complete Main
    Default                     : Yes
    Forced                      : No
    Original source medium      : Blu-ray

    Audio #2
    ID                          : 3
    ID in the original source m : 4352 (0x1100)
    Format                      : DTS XLL
    Format/Info                 : Digital Theater Systems
    Commercial name             : DTS-HD Master Audio
    Codec ID                    : A_DTS
    Duration                    : 2 h 32 min
    Bit rate mode               : Variable
    Bit rate                    : 3 312 kb/s
    Channel(s)                  : 6 channels
    Channel layout              : C L R Ls Rs LFE
    Sampling rate               : 48.0 kHz
    Frame rate                  : 93.750 FPS (512 SPF)
    Bit depth                   : 24 bits
    Compression mode            : Lossless
    Stream size                 : 3.53 GiB (12%)
    Language                    : English
    Default                     : No
    Forced                      : No
    Original source medium      : Blu-ray

    Text
    ID                          : 4
    ID in the original source m : 4611 (0x1203)
    Format                      : PGS
    Muxing mode                 : zlib
    Codec ID                    : S_HDMV/PGS
    Codec ID/Info               : Picture based subtitle format used on BDs/HD-DVDs
    Duration                    : 2 h 32 min
    Bit rate                    : 23.7 kb/s
    Count of elements           : 3236
    Stream size                 : 25.8 MiB (0%)
    Language                    : Spanish
    Default                     : No
    Forced                      : No
    Original source medium      : Blu-ray

    Menu
    00:00:00.000                : en:Chapter 01
    00:05:06.347                : en:Chapter 02
    00:07:40.543                : en:Chapter 03
    00:10:38.554                : en:Chapter 04
    00:13:35.606                : en:Chapter 05
    00:18:13.092                : en:Chapter 06
    00:24:09.656                : en:Chapter 07
    00:28:19.948                : en:Chapter 08
    00:34:08.337                : en:Chapter 09
    00:38:00.319                : en:Chapter 10
    00:41:30.446                : en:Chapter 11
    00:46:29.244                : en:Chapter 12
    00:49:46.692                : en:Chapter 13
    00:54:24.427                : en:Chapter 14
    00:59:01.538                : en:Chapter 15
    01:03:57.917                : en:Chapter 16
    01:07:29.628                : en:Chapter 17
    01:12:11.118                : en:Chapter 18
    01:15:30.526                : en:Chapter 19
    01:18:08.100                : en:Chapter 20
    01:24:06.958                : en:Chapter 21
    01:26:23.761                : en:Chapter 22
    01:30:17.537                : en:Chapter 23
    01:32:52.858                : en:Chapter 24
    01:36:12.183                : en:Chapter 25
    01:42:54.126                : en:Chapter 26
    01:46:50.654                : en:Chapter 27
    01:50:11.646                : en:Chapter 28
    01:53:07.530                : en:Chapter 29
    01:55:54.197                : en:Chapter 30
    01:59:42.091                : en:Chapter 31
    02:03:13.761                : en:Chapter 32
    02:07:04.992                : en:Chapter 33
    02:17:10.889                : en:Chapter 34
    02:20:20.161                : en:Chapter 35
    02:21:56.925                : en:Chapter 36
    02:27:34.262                : en:Chapter 37

  • Peso: 29.3 GiB

Sinopsis

El guionista Peter Appleton se ve obligado a huir de Hollywood a causa de la caza de brujas emprendida por el senador McCarthy en la década de 1950. Tras sufrir un accidente de coche que le provoca amnesia, es rescatado por los habitantes de un pueblo.

Ficha técnica

Video trailer de la película

Enlaces de descarga

Rip de Bluray

Descargar The Majestic (2001) REMUX 1080p Latino – CMHDD


Aportes de DPeliculasHDmega la pass es:dpeliculashdmega.org Aportes de CinemaniaHD la pass es:cinemaniahdd.com
Guardado en : Comedia , Drama , Romance

Películas relacionadas

  • Zola (2020) HD 1080p Latino

    Zola (2020) HD 1080p Latino

    2020
    Zola (2020) HD 1080p Latino

    1h 26m 2020

    Descargar Zola (2020) HD 1080p Latino. Una camarera accede a acompañar a una bailarina exótica, su...

    Director: Sheri Davani

    Género: Comedia

    Actores: Ts Madison

  • Zola (2020) PLACEBO Full HD 1080p Latino

    Zola (2020) PLACEBO Full HD 1080p Latino

    2020
    Zola (2020) PLACEBO Full HD 1080p Latino

    1h 26m 2020

    Descargar Zola (2020) PLACEBO Full HD 1080p Latino. Una camarera accede a acompañar a una bailarina...

    Director: Sheri Davani

    Género: Comedia

    Actores: Ts Madison

  • Zola (2020) REMUX 1080p Latino

    Zola (2020) REMUX 1080p Latino

    2020
    Zola (2020) REMUX 1080p Latino

    1h 26m 2020

    Descargar Zola (2020) REMUX 1080p Latino. Una camarera accede a acompañar a una bailarina exótica,...

    Director: Sheri Davani

    Género: Comedia

    Actores: Ts Madison

descargar The Majestic (2001) REMUX 1080p Latino – CMHDD Full 1080p 1080p gratis, The Majestic (2001) REMUX 1080p Latino – CMHDD Full 1080p mega 1 link, The Majestic (2001) REMUX 1080p Latino – CMHDD Full 1080p pelicula completa, descargar The Majestic (2001) REMUX 1080p Latino – CMHDD Full 1080p gratis en mega.

The Majestic (2001) REMUX 1080p Latino – CMHDD pelicula full hd, The Majestic (2001) REMUX 1080p Latino – CMHDD mega latino, The Majestic (2001) REMUX 1080p Latino – CMHDD 4k latino, The Majestic (2001) REMUX 1080p Latino – CMHDD pelicula completa, The Majestic (2001) REMUX 1080p Latino – CMHDD descargar gratis, descargar The Majestic (2001) REMUX 1080p Latino – CMHDD pelicula latino, The Majestic (2001) REMUX 1080p Latino – CMHDD 1 link mega, The Majestic (2001) REMUX 1080p Latino – CMHDD 1 link google drive, The Majestic (2001) REMUX 1080p Latino – CMHDD hd 1080p latino.
Comentarios 0