×

¿Problemas para descargar con Mozilla, EDGE? Deshabilita la opción "Abrir vinculos en una pestaña nueva" tal como lo muestra ésta imagen.

The Mad Women’s Ball (2021) AMZN WEB-DL 1080p Latino

106 vistas

Información de The Mad Women’s Ball (2021) AMZN WEB-DL 1080p Latino

Datos de la película

  • Calidad: 1080p
  • Audio: Se especifica abajo de la Sinopsis
  • Subtitulos: Español Latino SRT- FORZADOS SRT
  • Resolución: 1920x800
  • Formato: MKV
  • Codec: H.264
  • Encoder: cinemaniahdd
  • Mediainfo: Clic para Mostrar Datos Ver
  • The Mad Women's Ball (2021) AMZN WEB-DL 1080p Latino [CNMNHDD].mkv
    Format                      : Matroska
    Format version              : Version 4
    File size                   : 12.1 GiB
    Duration                    : 2 h 1 min
    Overall bit rate            : 14.2 Mb/s
    Movie name                  : The Mad Women's Ball (2021) - CinemaniaHDD.Net
    Encoded date                : UTC 2021-09-17 01:40:25
    Writing application         : mkvmerge v56.1.0 ('My Friend') 64-bit
    Writing library             : libebml v1.4.2 + libmatroska v1.6.4

    Video
    ID                          : 1
    Format                      : AVC
    Format/Info                 : Advanced Video Codec
    Format profile              : High@L4
    Format settings             : CABAC / 4 Ref Frames
    Format settings, CABAC      : Yes
    Format settings, Reference  : 4 frames
    Codec ID                    : V_MPEG4/ISO/AVC
    Duration                    : 2 h 1 min
    Bit rate                    : 11.6 Mb/s
    Width                       : 1 920 pixels
    Height                      : 800 pixels
    Display aspect ratio        : 2.40:1
    Frame rate mode             : Constant
    Frame rate                  : 24.000 FPS
    Color space                 : YUV
    Chroma subsampling          : 4:2:0
    Bit depth                   : 8 bits
    Scan type                   : Progressive
    Bits/(Pixel*Frame)          : 0.315
    Stream size                 : 9.89 GiB (82%)
    Title                       : CinemaniaHDD
    Language                    : Spanish
    Default                     : No
    Forced                      : No
    Color range                 : Limited
    Color primaries             : BT.709
    Transfer characteristics    : BT.709
    Matrix coefficients         : BT.709

    Audio #1
    ID                          : 2
    Format                      : AC-3
    Format/Info                 : Audio Coding 3
    Commercial name             : Dolby Digital
    Codec ID                    : A_AC3
    Duration                    : 2 h 1 min
    Bit rate mode               : Constant
    Bit rate                    : 640 kb/s
    Channel(s)                  : 6 channels
    Channel layout              : L R C LFE Ls Rs
    Sampling rate               : 48.0 kHz
    Frame rate                  : 31.250 FPS (1536 SPF)
    Compression mode            : Lossy
    Stream size                 : 558 MiB (5%)
    Title                       : Español latino [CinemaniaHDD]
    Language                    : Spanish
    Service kind                : Complete Main
    Default                     : Yes
    Forced                      : No

    Audio #2
    ID                          : 3
    Format                      : E-AC-3
    Format/Info                 : Enhanced AC-3
    Commercial name             : Dolby Digital Plus
    Codec ID                    : A_EAC3
    Duration                    : 2 h 1 min
    Bit rate mode               : Constant
    Bit rate                    : 640 kb/s
    Channel(s)                  : 6 channels
    Channel layout              : L R C LFE Ls Rs
    Sampling rate               : 48.0 kHz
    Frame rate                  : 31.250 FPS (1536 SPF)
    Compression mode            : Lossy
    Stream size                 : 558 MiB (5%)
    Title                       : Español latino / E-AC3 [CinemaniaHDD]
    Language                    : Spanish
    Service kind                : Complete Main
    Default                     : No
    Forced                      : No

    Audio #3
    ID                          : 4
    Format                      : AC-3
    Format/Info                 : Audio Coding 3
    Commercial name             : Dolby Digital
    Codec ID                    : A_AC3
    Duration                    : 2 h 1 min
    Bit rate mode               : Constant
    Bit rate                    : 640 kb/s
    Channel(s)                  : 6 channels
    Channel layout              : L R C LFE Ls Rs
    Sampling rate               : 48.0 kHz
    Frame rate                  : 31.250 FPS (1536 SPF)
    Compression mode            : Lossy
    Stream size                 : 558 MiB (5%)
    Title                       : Francés [CinemaniaHDD]
    Language                    : French
    Service kind                : Complete Main
    Default                     : No
    Forced                      : No

    Audio #4
    ID                          : 5
    Format                      : E-AC-3
    Format/Info                 : Enhanced AC-3
    Commercial name             : Dolby Digital Plus
    Codec ID                    : A_EAC3
    Duration                    : 2 h 1 min
    Bit rate mode               : Constant
    Bit rate                    : 640 kb/s
    Channel(s)                  : 6 channels
    Channel layout              : L R C LFE Ls Rs
    Sampling rate               : 48.0 kHz
    Frame rate                  : 31.250 FPS (1536 SPF)
    Compression mode            : Lossy
    Stream size                 : 558 MiB (5%)
    Title                       : Francés / E-AC3 [CinemaniaHDD]
    Language                    : French
    Service kind                : Complete Main
    Default                     : No
    Forced                      : No

    Text #1
    ID                          : 6
    Format                      : UTF-8
    Codec ID                    : S_TEXT/UTF8
    Codec ID/Info               : UTF-8 Plain Text
    Duration                    : 53 min 36 s
    Bit rate                    : 1 b/s
    Count of elements           : 26
    Stream size                 : 624 Bytes (0%)
    Title                       : Forzados [CinemaniaHDD]
    Language                    : Spanish
    Default                     : Yes
    Forced                      : Yes

    Text #2
    ID                          : 7
    Format                      : UTF-8
    Codec ID                    : S_TEXT/UTF8
    Codec ID/Info               : UTF-8 Plain Text
    Duration                    : 2 h 0 min
    Bit rate                    : 32 b/s
    Count of elements           : 1025
    Stream size                 : 28.7 KiB (0%)
    Title                       : Español latino [CinemaniaHDD]
    Language                    : Spanish
    Default                     : No
    Forced                      : No

    Text #3
    ID                          : 8
    Format                      : UTF-8
    Codec ID                    : S_TEXT/UTF8
    Codec ID/Info               : UTF-8 Plain Text
    Duration                    : 2 h 0 min
    Bit rate                    : 36 b/s
    Count of elements           : 1138
    Stream size                 : 32.3 KiB (0%)
    Title                       : Inglés [CinemaniaHDD]
    Language                    : English
    Default                     : No
    Forced                      : No

     

  • Peso: 12.1 GiB

Sinopsis

Una mujer que está injustamente institucionalizada en un asilo de París planea escapar con la ayuda de una de sus enfermeras.

Español Latino AC3 5.1 WEB-DL – Fraces AC3 5.1 WEB-DL

Ficha técnica

  • Titulo original: Le bal des folles
  • Fecha de lanzamiento: 17-09-2021 (France)
  • Director: Mélanie Laurent
  • Género: Suspenso

Video trailer de la película

Enlaces de descarga

Rip de Bluray

Descargar The Mad Women’s Ball (2021) AMZN WEB-DL 1080p Latino




Aportes de DPeliculasHDmega la pass es:dpeliculashdmega.org Aportes de CinemaniaHD la pass es:cinemaniahdd.com
Guardado en : Suspenso

Películas relacionadas

  • La Máquina infernal (2022) WEB-DL 1080p Latino

    La Máquina infernal (2022) WEB-DL 1080p Latino

    2022
    La Máquina infernal (2022) WEB-DL 1080p Latino

    1h 47m 2022

    Descargar La Máquina infernal (2022) WEB-DL 1080p Latino. Un fan obsesivo saca de su escondite al solitario...

    Director: Andrew Hunt

    Género: Suspenso

    Actores: Rocco Salata

  • Borrego: Sal Del Camino (2022) HD 1080p Latino

    Borrego: Sal Del Camino (2022) HD 1080p Latino

    2022
    Borrego: Sal Del Camino (2022) HD 1080p Latino

    1h 42m 2022

    Descargar Borrego: Sal Del Camino (2022) HD 1080p Latino. Una joven botánica se traslada a un pequeño...

    Director: Jesse Harris

    Género: Crimen

    Actores: Olivia Trujillo

  • Borrego: Sal Del Camino (2022) REMUX 1080p Latino

    Borrego: Sal Del Camino (2022) REMUX 1080p Latino

    2022
    Borrego: Sal Del Camino (2022) REMUX 1080p Latino

    1h 42m 2022

    Descargar Borrego: Sal Del Camino (2022) REMUX 1080p Latino. Una joven botánica se traslada a un pequeño...

    Director: Jesse Harris

    Género: Crimen

    Actores: Olivia Trujillo

  • Tren Bala (2022) WEB-DL 4K UHD HDR Latino

    Tren Bala (2022) WEB-DL 4K UHD HDR Latino

    2022
    Tren Bala (2022) WEB-DL 4K UHD HDR Latino

    2h 7m 2022

    Descargar Tren Bala (2022) WEB-DL 4K UHD HDR Latino. El desafortunado asesino "Catarina" está decidido...

    Director: Paul Barry

    Género: 4K HDR

    Actores: Zooey Miyoshi

descargar The Mad Women’s Ball (2021) AMZN WEB-DL 1080p Latino 1080p 1080p gratis, The Mad Women’s Ball (2021) AMZN WEB-DL 1080p Latino 1080p mega 1 link, The Mad Women’s Ball (2021) AMZN WEB-DL 1080p Latino 1080p pelicula completa, descargar The Mad Women’s Ball (2021) AMZN WEB-DL 1080p Latino 1080p gratis en mega.

The Mad Women’s Ball (2021) AMZN WEB-DL 1080p Latino pelicula full hd, The Mad Women’s Ball (2021) AMZN WEB-DL 1080p Latino mega latino, The Mad Women’s Ball (2021) AMZN WEB-DL 1080p Latino 4k latino, The Mad Women’s Ball (2021) AMZN WEB-DL 1080p Latino pelicula completa, The Mad Women’s Ball (2021) AMZN WEB-DL 1080p Latino descargar gratis, descargar The Mad Women’s Ball (2021) AMZN WEB-DL 1080p Latino pelicula latino, The Mad Women’s Ball (2021) AMZN WEB-DL 1080p Latino 1 link mega, The Mad Women’s Ball (2021) AMZN WEB-DL 1080p Latino 1 link google drive, The Mad Women’s Ball (2021) AMZN WEB-DL 1080p Latino hd 1080p latino.
Comentarios 0