×

¿Problemas para descargar con Mozilla, EDGE? Deshabilita la opción "Abrir vinculos en una pestaña nueva" tal como lo muestra ésta imagen.

The Luminaries (2020) Primera Temporada AMZN WEB-DL 1080p Latino

226 vistas

Información de The Luminaries (2020) Primera Temporada AMZN WEB-DL 1080p Latino

Datos de la película

  • Calidad: 1080p
  • Audio: Español Latino AC3 2.0 WEB-DL - Ingles AC3 5.1 WEB-DL
  • Subtitulos: Español Latino SRT- FORZADOS SRT
  • Resolución: 1920x1080
  • Formato: MKV
  • Codec: H.264
  • Encoder: cinemaniahdd
  • Mediainfo: Clic para Mostrar Datos Ver
  • The Luminaries T01E01 AMZN WEB-DL 1080p Latino [CNMNHDD].mkv
    Format                      : Matroska
    Format version              : Version 4
    File size                   : 3.21 GiB
    Duration                    : 56 min 33 s
    Overall bit rate            : 8 129 kb/s
    Movie name                  : The Luminaries T01E01 - CinemaniaHDD.Net
    Encoded date                : UTC 2021-11-15 01:20:44
    Writing application         : mkvmerge v56.1.0 ('My Friend') 64-bit
    Writing library             : libebml v1.4.2 + libmatroska v1.6.4

    Video
    ID                          : 1
    Format                      : AVC
    Format/Info                 : Advanced Video Codec
    Format profile              : High@L4
    Format settings             : CABAC / 4 Ref Frames
    Format settings, CABAC      : Yes
    Format settings, Reference  : 4 frames
    Codec ID                    : V_MPEG4/ISO/AVC
    Duration                    : 56 min 33 s
    Bit rate mode               : Constant
    Bit rate                    : 7 103 kb/s
    Nominal bit rate            : 10 000 kb/s
    Width                       : 1 920 pixels
    Height                      : 1 080 pixels
    Display aspect ratio        : 16:9
    Frame rate mode             : Constant
    Frame rate                  : 25.000 FPS
    Color space                 : YUV
    Chroma subsampling          : 4:2:0
    Bit depth                   : 8 bits
    Scan type                   : Progressive
    Bits/(Pixel*Frame)          : 0.137
    Stream size                 : 2.81 GiB (87%)
    Title                       : CinemaniaHDD
    Default                     : Yes
    Forced                      : No
    Color range                 : Limited
    Color primaries             : BT.709
    Transfer characteristics    : BT.709
    Matrix coefficients         : BT.709

    Audio #1
    ID                          : 2
    Format                      : AC-3
    Format/Info                 : Audio Coding 3
    Commercial name             : Dolby Digital
    Codec ID                    : A_AC3
    Duration                    : 56 min 33 s
    Bit rate mode               : Constant
    Bit rate                    : 384 kb/s
    Channel(s)                  : 2 channels
    Channel layout              : L R
    Sampling rate               : 48.0 kHz
    Frame rate                  : 31.250 FPS (1536 SPF)
    Compression mode            : Lossy
    Stream size                 : 155 MiB (5%)
    Title                       : Español latino [CinemaniaHDD]
    Language                    : Spanish
    Service kind                : Complete Main
    Default                     : Yes
    Forced                      : No

    Audio #2
    ID                          : 3
    Format                      : E-AC-3
    Format/Info                 : Enhanced AC-3
    Commercial name             : Dolby Digital Plus
    Codec ID                    : A_EAC3
    Duration                    : 56 min 33 s
    Bit rate mode               : Constant
    Bit rate                    : 640 kb/s
    Channel(s)                  : 6 channels
    Channel layout              : L R C LFE Ls Rs
    Sampling rate               : 48.0 kHz
    Frame rate                  : 31.250 FPS (1536 SPF)
    Compression mode            : Lossy
    Stream size                 : 259 MiB (8%)
    Title                       : Inglés [CinemaniaHDD]
    Language                    : English
    Service kind                : Complete Main
    Default                     : No
    Forced                      : No

    Text #1
    ID                          : 4
    Format                      : UTF-8
    Codec ID                    : S_TEXT/UTF8
    Codec ID/Info               : UTF-8 Plain Text
    Duration                    : 51 min 53 s
    Bit rate                    : 0 b/s
    Count of elements           : 8
    Stream size                 : 124 Bytes (0%)
    Title                       : Forzados [CinemaniaHDD]
    Language                    : Spanish
    Default                     : Yes
    Forced                      : Yes

    Text #2
    ID                          : 5
    Format                      : UTF-8
    Codec ID                    : S_TEXT/UTF8
    Codec ID/Info               : UTF-8 Plain Text
    Duration                    : 55 min 39 s
    Bit rate                    : 39 b/s
    Count of elements           : 602
    Stream size                 : 16.0 KiB (0%)
    Title                       : Español latino [CinemaniaHDD]
    Language                    : Spanish
    Default                     : No
    Forced                      : No

     

  • Peso: 3.21 GiB Aprox ---- 20 GiB in 6 Chapters.

Sinopsis

Anna Wetherell, es una joven que viaja desde Gran Bretaña a Nueva Zelanda para dar comienzo a su nueva vida. En este nuevo país conoce a Emery Staines tras un extraño encuentro que provoca una conexión inexplicable. Anna debe adaptarse a este nuevo lugar en el que el naufragio, los crímenes, la coacción, la traición, la avaricia y el dinero conspiran para mantenerles separadas.

Ficha técnica

  • Titulo original: The Luminaries
  • Fecha de lanzamiento: 17-05-2020 (NZ)
  • Género: Drama, Misterio, Series

Video trailer de la película

Enlaces de descarga

Rip de Bluray

Descargar The Luminaries (2020) Primera Temporada AMZN WEB-DL 1080p Latino




Aportes de DPeliculasHDmega la pass es:dpeliculashdmega.org Aportes de CinemaniaHD la pass es:cinemaniahdd.com
Guardado en : Drama , Misterio , Series

Películas relacionadas

descargar The Luminaries (2020) Primera Temporada AMZN WEB-DL 1080p Latino 1080p 1080p gratis, The Luminaries (2020) Primera Temporada AMZN WEB-DL 1080p Latino 1080p mega 1 link, The Luminaries (2020) Primera Temporada AMZN WEB-DL 1080p Latino 1080p serie completa, descargar The Luminaries (2020) Primera Temporada AMZN WEB-DL 1080p Latino 1080p gratis en mega.

The Luminaries (2020) Primera Temporada AMZN WEB-DL 1080p Latino pelicula full hd, The Luminaries (2020) Primera Temporada AMZN WEB-DL 1080p Latino mega latino, The Luminaries (2020) Primera Temporada AMZN WEB-DL 1080p Latino 4k latino, The Luminaries (2020) Primera Temporada AMZN WEB-DL 1080p Latino pelicula completa, The Luminaries (2020) Primera Temporada AMZN WEB-DL 1080p Latino descargar gratis, descargar The Luminaries (2020) Primera Temporada AMZN WEB-DL 1080p Latino pelicula latino, The Luminaries (2020) Primera Temporada AMZN WEB-DL 1080p Latino 1 link mega, The Luminaries (2020) Primera Temporada AMZN WEB-DL 1080p Latino 1 link google drive, The Luminaries (2020) Primera Temporada AMZN WEB-DL 1080p Latino hd 1080p latino.
Comentarios 0