×

¿Problemas para descargar con Mozilla, EDGE? Deshabilita la opción "Abrir vinculos en una pestaña nueva" tal como lo muestra ésta imagen.

The Lucky One (2012) REMUX 1080p Latino – CMHDD

120 vistas

Información de The Lucky One (2012) REMUX 1080p Latino – CMHDD

Datos de la película

  • Calidad: Full 1080p
  • Audio: Español Latino AC3 5.1 BLURAY - Ingles DTS 5.1 BLURAY
  • Subtitulos: Español Latino PGS
  • Resolución: 1920x1080p
  • Formato: MKV
  • Codec: H.264
  • Encoder: Dracarys
  • Mediainfo: Clic para Mostrar Datos Ver
  • Format                      : Matroska
    Format version              : Version 4
    File size                   : 15.7 GiB
    Duration                    : 1 h 40 min
    Overall bit rate mode       : Variable
    Overall bit rate            : 22.2 Mb/s
    Movie name                  : The Lucky One (2012) REMUX 1080p Latino - CMHDD
    Encoded date                : UTC 2023-09-02 00:04:41
    Writing application         : mkvmerge v47.0.0 ('Black Flag') 64-bit
    Writing library             : libebml v1.3.10 + libmatroska v1.5.2
    Cover                       : Yes
    Attachments                 : cover.jpg

    Video
    ID                          : 1
    ID in the original source m : 4113 (0x1011)
    Format                      : AVC
    Format/Info                 : Advanced Video Codec
    Format profile              : High@L4.1
    Format settings             : CABAC / 2 Ref Frames
    Format settings, CABAC      : Yes
    Format settings, Reference  : 2 frames
    Format settings, GOP        : M=1, N=10
    Codec ID                    : V_MPEG4/ISO/AVC
    Duration                    : 1 h 40 min
    Bit rate mode               : Variable
    Bit rate                    : 17.8 Mb/s
    Width                       : 1 920 pixels
    Height                      : 1 080 pixels
    Display aspect ratio        : 16:9
    Frame rate mode             : Constant
    Frame rate                  : 23.976 (24000/1001) FPS
    Color space                 : YUV
    Chroma subsampling          : 4:2:0
    Bit depth                   : 8 bits
    Scan type                   : Progressive
    Bits/(Pixel*Frame)          : 0.357
    Stream size                 : 12.5 GiB (80%)
    Default                     : Yes
    Forced                      : No
    Original source medium      : Blu-ray

    Audio #1
    ID                          : 2
    ID in the original source m : 4352 (0x1100)
    Format                      : DTS XLL
    Format/Info                 : Digital Theater Systems
    Commercial name             : DTS-HD Master Audio
    Codec ID                    : A_DTS
    Duration                    : 1 h 40 min
    Bit rate mode               : Variable
    Bit rate                    : 3 822 kb/s
    Channel(s)                  : 6 channels
    Channel layout              : C L R Ls Rs LFE
    Sampling rate               : 48.0 kHz
    Frame rate                  : 93.750 FPS (512 SPF)
    Bit depth                   : 24 bits
    Compression mode            : Lossless
    Stream size                 : 2.69 GiB (17%)
    Language                    : English
    Default                     : No
    Forced                      : No
    Original source medium      : Blu-ray

    Audio #2
    ID                          : 3
    ID in the original source m : 4354 (0x1102)
    Format                      : AC-3
    Format/Info                 : Audio Coding 3
    Commercial name             : Dolby Digital
    Codec ID                    : A_AC3
    Duration                    : 1 h 40 min
    Bit rate mode               : Constant
    Bit rate                    : 640 kb/s
    Channel(s)                  : 6 channels
    Channel layout              : L R C LFE Ls Rs
    Sampling rate               : 48.0 kHz
    Frame rate                  : 31.250 FPS (1536 SPF)
    Compression mode            : Lossy
    Stream size                 : 462 MiB (3%)
    Language                    : Spanish
    Service kind                : Complete Main
    Default                     : Yes
    Forced                      : No
    Original source medium      : Blu-ray

    Text #1
    ID                          : 4
    ID in the original source m : 4612 (0x1204)
    Format                      : PGS
    Muxing mode                 : zlib
    Codec ID                    : S_HDMV/PGS
    Codec ID/Info               : Picture based subtitle format used on BDs/HD-DVDs
    Duration                    : 1 h 40 min
    Bit rate                    : 22.2 kb/s
    Frame rate                  : 0.334 FPS
    Count of elements           : 2006
    Stream size                 : 15.9 MiB (0%)
    Language                    : Spanish
    Default                     : No
    Forced                      : No
    Original source medium      : Blu-ray

    Text #2
    ID                          : 5
    ID in the original source m : 4614 (0x1206)
    Format                      : PGS
    Muxing mode                 : zlib
    Codec ID                    : S_HDMV/PGS
    Codec ID/Info               : Picture based subtitle format used on BDs/HD-DVDs
    Duration                    : 1 h 34 min
    Bit rate                    : 172 b/s
    Frame rate                  : 0.002 FPS
    Count of elements           : 14
    Stream size                 : 120 KiB (0%)
    Language                    : Spanish
    Default                     : Yes
    Forced                      : No
    Original source medium      : Blu-ray

    Menu
    00:00:00.000                : en:Capítulo 01
    00:10:27.585                : en:Capítulo 02
    00:20:08.790                : en:Capítulo 03
    00:28:47.475                : en:Capítulo 04
    00:39:55.601                : en:Capítulo 05
    00:50:50.047                : en:Capítulo 06
    01:00:29.000                : en:Capítulo 07
    01:09:19.405                : en:Capítulo 08
    01:20:21.316                : en:Capítulo 09
    01:29:14.891                : en:Capítulo 10
    01:37:16.163                : en:Capítulo 11

  • Peso: 15.7 GiB

Sinopsis

Un soldado americano destinado en Irak encuentra la fotografía de una mujer de la que queda prendado. Considera que el hallazgo es una prueba irrefutable de su buena suerte, así que, cuando regresa a su país, busca a la chica y la encuentra: se trata de una madre divorciada. Adaptación de una novela de Nicholas Sparks (El diario de Noa).

Ficha técnica

  • Titulo original: The Lucky One
  • Fecha de lanzamiento: 19-04-2012 (United States of America)
  • Director: Scott Hicks
  • Género: Drama, Romance

Video trailer de la película

Enlaces de descarga

Rip de Bluray

Descargar The Lucky One (2012) REMUX 1080p Latino – CMHDD


Aportes de DPeliculasHDmega la pass es:dpeliculashdmega.org Aportes de CinemaniaHD la pass es:cinemaniahdd.com Aportes recientes:cinemaniahdd.net
Guardado en : Drama , Romance

Películas relacionadas

descargar The Lucky One (2012) REMUX 1080p Latino – CMHDD Full 1080p 1080p gratis, The Lucky One (2012) REMUX 1080p Latino – CMHDD Full 1080p mega 1 link, The Lucky One (2012) REMUX 1080p Latino – CMHDD Full 1080p pelicula completa, descargar The Lucky One (2012) REMUX 1080p Latino – CMHDD Full 1080p gratis en mega.

The Lucky One (2012) REMUX 1080p Latino – CMHDD pelicula full hd, The Lucky One (2012) REMUX 1080p Latino – CMHDD mega latino, The Lucky One (2012) REMUX 1080p Latino – CMHDD 4k latino, The Lucky One (2012) REMUX 1080p Latino – CMHDD pelicula completa, The Lucky One (2012) REMUX 1080p Latino – CMHDD descargar gratis, descargar The Lucky One (2012) REMUX 1080p Latino – CMHDD pelicula latino, The Lucky One (2012) REMUX 1080p Latino – CMHDD 1 link mega, The Lucky One (2012) REMUX 1080p Latino – CMHDD 1 link google drive, The Lucky One (2012) REMUX 1080p Latino – CMHDD hd 1080p latino.
Comentarios 0