×

¿Problemas para descargar con Mozilla, EDGE? Deshabilita la opción "Abrir vinculos en una pestaña nueva" tal como lo muestra ésta imagen.

Desde mi cielo (2009) REMUX 1080p Latino

47 vistas

Información de Desde mi cielo (2009) REMUX 1080p Latino

Datos de la película

  • Calidad: Full 1080p
  • Audio: Se especifica abajo de la Sinopsis
  • Subtitulos: Español Latino PGS - Ingles PGS
  • Resolución: 1920x1080p
  • Formato: MKV
  • Codec: H.264
  • Encoder: CinefiloCool
  • Mediainfo: Clic para Mostrar Datos Ver
  • Desde Mi Cielo (2009) REMUX 1080p Latino-CMHDD.mkv Format                      : Matroska Format version              : Version 4 File size                   : 36.5 GiB Duration                    : 2 h 16 min Overall bit rate mode       : Variable Overall bit rate            : 38.3 Mb/s Movie name                  : The lovely Bones (2009) CinemaniaHDD.Net Encoded date                : UTC 2023-02-05 03:58:40 Writing application         : mkvmerge v56.1.0 ('My Friend') 64-bit Writing library             : libebml v1.4.2 + libmatroska v1.6.4 Attachments                 : CINEMANIAHD.png Video ID                          : 1 Format                      : AVC Format/Info                 : Advanced Video Codec Format profile              : High@L4.1 Format settings             : CABAC / 4 Ref Frames Format settings, CABAC      : Yes Format settings, Reference  : 4 frames Codec ID                    : V_MPEG4/ISO/AVC Duration                    : 2 h 15 min Bit rate mode               : Variable Bit rate                    : 32.9 Mb/s Maximum bit rate            : 36.0 Mb/s Width                       : 1 920 pixels Height                      : 1 080 pixels Display aspect ratio        : 16:9 Frame rate mode             : Constant Frame rate                  : 23.976 (24000/1001) FPS Color space                 : YUV Chroma subsampling          : 4:2:0 Bit depth                   : 8 bits Scan type                   : Progressive Bits/(Pixel*Frame)          : 0.662 Stream size                 : 31.1 GiB (85%) Title                       : REMUX HD1080p [CinemaniaHDD] Default                     : Yes Forced                      : Yes Color range                 : Limited Color primaries             : BT.709 Transfer characteristics    : BT.709 Matrix coefficients         : BT.709 Audio #1 ID                          : 2 Format                      : AC-3 Format/Info                 : Audio Coding 3 Commercial name             : Dolby Digital Codec ID                    : A_AC3 Duration                    : 2 h 15 min Bit rate mode               : Constant Bit rate                    : 640 kb/s Channel(s)                  : 6 channels Channel layout              : L R C LFE Ls Rs Sampling rate               : 48.0 kHz Frame rate                  : 31.250 FPS (1536 SPF) Compression mode            : Lossy Stream size                 : 620 MiB (2%) Title                       : Español Latino AC3 [CinemaniaHDD] Language                    : Spanish Service kind                : Complete Main Default                     : Yes Forced                      : Yes Audio #2 ID                          : 3 Format                      : E-AC-3 Format/Info                 : Enhanced AC-3 Commercial name             : Dolby Digital Plus Codec ID                    : A_EAC3 Duration                    : 2 h 16 min Bit rate mode               : Constant Bit rate                    : 640 kb/s Channel(s)                  : 6 channels Channel layout              : L R C LFE Ls Rs Sampling rate               : 48.0 kHz Frame rate                  : 31.250 FPS (1536 SPF) Compression mode            : Lossy Stream size                 : 625 MiB (2%) Title                       : Español Latino EAC3 [CinemaniaHDD] Language                    : Spanish Service kind                : Complete Main Default                     : No Forced                      : No Audio #3 ID                          : 4 Format                      : DTS XLL Format/Info                 : Digital Theater Systems Commercial name             : DTS-HD Master Audio Codec ID                    : A_DTS Duration                    : 2 h 15 min Bit rate mode               : Variable Bit rate                    : 4 347 kb/s Channel(s)                  : 6 channels Channel layout              : C L R Ls Rs LFE Sampling rate               : 48.0 kHz Frame rate                  : 93.750 FPS (512 SPF) Bit depth                   : 24 bits Compression mode            : Lossless Stream size                 : 4.11 GiB (11%) Title                       : Ingles [CinemaniaHDD] Language                    : English Default                     : No Forced                      : No Text #1 ID                          : 5 Format                      : PGS Muxing mode                 : zlib Codec ID                    : S_HDMV/PGS Codec ID/Info               : Picture based subtitle format used on BDs/HD-DVDs Duration                    : 1 h 41 min Bit rate                    : 239 b/s Count of elements           : 18 Stream size                 : 179 KiB (0%) Title                       : Forzados-PGS [CinemaniaHDD] Language                    : Spanish Default                     : No Forced                      : No Text #2 ID                          : 6 Format                      : PGS Muxing mode                 : zlib Codec ID                    : S_HDMV/PGS Codec ID/Info               : Picture based subtitle format used on BDs/HD-DVDs Duration                    : 2 h 0 min Bit rate                    : 21.0 kb/s Count of elements           : 1998 Stream size                 : 18.1 MiB (0%) Title                       : Español-PGS [CinemaniaHDD] Language                    : Spanish Default                     : No Forced                      : No Text #3 ID                          : 7 Format                      : PGS Muxing mode                 : zlib Codec ID                    : S_HDMV/PGS Codec ID/Info               : Picture based subtitle format used on BDs/HD-DVDs Duration                    : 2 h 0 min Bit rate                    : 23.5 kb/s Count of elements           : 2014 Stream size                 : 20.2 MiB (0%) Title                       : Ingles-PGS [CinemaniaHDD] Language                    : English Default                     : No Forced                      : No Text #4 ID                          : 8 Format                      : UTF-8 Codec ID                    : S_TEXT/UTF8 Codec ID/Info               : UTF-8 Plain Text Duration                    : 1 h 41 min Bit rate                    : 0 b/s Count of elements           : 9 Stream size                 : 221 Bytes (0%) Title                       : Forzados-SRT [CinemaniaHDD] Language                    : Spanish Default                     : Yes Forced                      : Yes Text #5 ID                          : 9 Format                      : UTF-8 Codec ID                    : S_TEXT/UTF8 Codec ID/Info               : UTF-8 Plain Text Duration                    : 2 h 0 min Bit rate                    : 34 b/s Count of elements           : 999 Stream size                 : 30.4 KiB (0%) Title                       : Español-SRT [CinemaniaHDD] Language                    : Spanish Default                     : No Forced                      : No Menu 00:00:00.000                : :Chapter 01 00:10:21.913                : :Chapter 02 00:21:41.509                : :Chapter 03 00:32:05.006                : :Chapter 04 00:44:04.517                : :Chapter 05 00:58:47.774                : :Chapter 06 01:12:01.526                : :Chapter 07 01:25:46.099                : :Chapter 08 01:38:16.974                : :Chapter 09 01:48:23.205                : :Chapter 10 01:57:47.560                : :Chapter 11 02:01:54.224                : :Chapter 12
  • Peso: 36.5 GiB

Sinopsis

Descargar Desde mi cielo (2009) REMUX 1080p Latino. La historia gira en torno a Susie Salmon, que fue asesinada cuando tenía tan sólo 14 años en diciembre de 1973 cuando volvía del colegio a su casa. Tras su muerte, continúa pendiente de su familia terrenal (mientras su asesino sigue sin ser descubierto). Atrapada en un más allá luminoso, Susie descubre que tiene que decidirse entre su deseo de venganza y su anhelo por ver reponerse a los suyos y seguir su camino. Lo que comienza como un asesinato impresionante se transforma en un viaje misterioso y visualmente inventivo a través de los vínculos de la memoria, el amor, la esperanza y la intensa belleza de la vida en sí misma, con destino a un emocionante y sorprendente momento de la verdad.

Audio Español Latino AC3 5.1 Bluray + EAC3 5.1 NF – Ingles DTS-HD 5.1 Bluray

Ficha técnica

  • Titulo original: The Lovely Bones
  • Fecha de lanzamiento: 19-02-2009 (New Zealand, United Kingdom, United States of America)
  • Director: Peter Jackson
  • Género: Drama, Fantasía, Remux

Video trailer de la película

Enlaces de descarga

Rip de Bluray

Descargar Desde mi cielo (2009) REMUX 1080p Latino


Aportes de DPeliculasHDmega la pass es:dpeliculashdmega.org Aportes de CinemaniaHD la pass es:cinemaniahdd.com
Guardado en : Drama , Fantasía , Remux

Películas relacionadas

  • Los Tres Mosqueteros (1993) REMUX 1080p Latino

    Los Tres Mosqueteros (1993) REMUX 1080p Latino

    1993
    Los Tres Mosqueteros (1993) REMUX 1080p Latino

    1h 45m 1993

    Descargar Los Tres Mosqueteros (1993) REMUX 1080p Latino. Un habilidoso espadachín de provincias, D´Artagnan,...

    Director: Stephen Herek

    Género: Acción

    Actores: Tim Curry

  • Sublime (2007) REMUX 1080p SUB

    Sublime (2007) REMUX 1080p SUB

    2007
    Sublime (2007) REMUX 1080p SUB

    1h 53m 2007

    Descargar Sublime (2007) REMUX 1080p SUB. George Grieves ingresa en el hospital de Mt Abbadon para hacerse...

    Director: Tony Krantz

    Género: Remux

    Actores: Tom Cavanagh

  • Jamaica bajo cero (1993) REMUX 1080p Latino

    Jamaica bajo cero (1993) REMUX 1080p Latino

    1993
    Jamaica bajo cero (1993) REMUX 1080p Latino

    1h 38m 1993

    Descargar Jamaica bajo cero (1993) REMUX 1080p Latino. Derice, Sanka, Junio Bevil y Yul son cuatro atletas...

    Director: Michael D. Moore

    Género: Aventura

    Actores: Winston Stona

descargar Desde mi cielo (2009) REMUX 1080p Latino Full 1080p 1080p gratis, Desde mi cielo (2009) REMUX 1080p Latino Full 1080p mega 1 link, Desde mi cielo (2009) REMUX 1080p Latino Full 1080p pelicula completa, descargar Desde mi cielo (2009) REMUX 1080p Latino Full 1080p gratis en mega.

Desde mi cielo (2009) REMUX 1080p Latino pelicula full hd, Desde mi cielo (2009) REMUX 1080p Latino mega latino, Desde mi cielo (2009) REMUX 1080p Latino 4k latino, Desde mi cielo (2009) REMUX 1080p Latino pelicula completa, Desde mi cielo (2009) REMUX 1080p Latino descargar gratis, descargar Desde mi cielo (2009) REMUX 1080p Latino pelicula latino, Desde mi cielo (2009) REMUX 1080p Latino 1 link mega, Desde mi cielo (2009) REMUX 1080p Latino 1 link google drive, Desde mi cielo (2009) REMUX 1080p Latino hd 1080p latino.
Comentarios 0