×

¿Problemas para descargar con Mozilla, EDGE? Deshabilita la opción "Abrir vinculos en una pestaña nueva" tal como lo muestra ésta imagen.

The Lost Flowers of Alice Hart (2023) Primera Temporada AMZN WEB-DL 1080p Latino

233 vistas

Información de The Lost Flowers of Alice Hart (2023) Primera Temporada AMZN WEB-DL 1080p Latino

Datos de la película

  • Calidad: 1080p
  • Audio: Español Latino AC3 5.1 WEB-DL - Ingles AC3 5.1 WEB-DL
  • Subtitulos: Español Latino SRT- FORZADOS SRT
  • Resolución: 1920x1080
  • Formato: MKV
  • Codec: H.264
  • Encoder: cinemaniahdd
  • Mediainfo: Clic para Mostrar Datos Ver
  • The Lost Flowers Of Alice Hart T01E03 AMZN WEB-DL 1080p Latino [CNMNHDD].mkv
    Format                      : Matroska
    Format version              : Version 4
    File size                   : 3.53 GiB
    Duration                    : 57 min 43 s
    Overall bit rate            : 8 750 kb/s
    Movie name                  : The Lost Flowers Of Alice Hart S01E03 - Part 3 Lantern Bush [1080p] - CinemaniaHDD.Net
    Encoded date                : UTC 2023-08-03 23:40:02
    Writing application         : mkvmerge v56.1.0 ('My Friend') 64-bit
    Writing library             : libebml v1.4.2 + libmatroska v1.6.4

    Video
    ID                          : 1
    Format                      : AVC
    Format/Info                 : Advanced Video Codec
    Format profile              : High@L4
    Format settings             : CABAC / 4 Ref Frames
    Format settings, CABAC      : Yes
    Format settings, Reference  : 4 frames
    Codec ID                    : V_MPEG4/ISO/AVC
    Duration                    : 57 min 43 s
    Bit rate mode               : Constant
    Bit rate                    : 6 828 kb/s
    Nominal bit rate            : 10 000 kb/s
    Width                       : 1 920 pixels
    Height                      : 800 pixels
    Display aspect ratio        : 2.40:1
    Frame rate mode             : Constant
    Frame rate                  : 23.976 (24000/1001) FPS
    Color space                 : YUV
    Chroma subsampling          : 4:2:0
    Bit depth                   : 8 bits
    Scan type                   : Progressive
    Bits/(Pixel*Frame)          : 0.185
    Stream size                 : 2.75 GiB (78%)
    Title                       : CinemaniaHDD
    Default                     : Yes
    Forced                      : No
    Color range                 : Limited
    Color primaries             : BT.709
    Transfer characteristics    : BT.709
    Matrix coefficients         : BT.709

    Audio #1
    ID                          : 2
    Format                      : AC-3
    Format/Info                 : Audio Coding 3
    Commercial name             : Dolby Digital
    Codec ID                    : A_AC3
    Duration                    : 57 min 43 s
    Bit rate mode               : Constant
    Bit rate                    : 640 kb/s
    Channel(s)                  : 6 channels
    Channel layout              : L R C LFE Ls Rs
    Sampling rate               : 48.0 kHz
    Frame rate                  : 31.250 FPS (1536 SPF)
    Compression mode            : Lossy
    Stream size                 : 264 MiB (7%)
    Title                       : Español Latino [CinemaniaHDD]
    Language                    : Spanish
    Service kind                : Complete Main
    Default                     : Yes
    Forced                      : No

    Audio #2
    ID                          : 3
    Format                      : E-AC-3
    Format/Info                 : Enhanced AC-3
    Commercial name             : Dolby Digital Plus
    Codec ID                    : A_EAC3
    Duration                    : 57 min 43 s
    Bit rate mode               : Constant
    Bit rate                    : 640 kb/s
    Channel(s)                  : 6 channels
    Channel layout              : L R C LFE Ls Rs
    Sampling rate               : 48.0 kHz
    Frame rate                  : 31.250 FPS (1536 SPF)
    Compression mode            : Lossy
    Stream size                 : 264 MiB (7%)
    Title                       : Español latino / E-AC3 [CinemaniaHDD]
    Language                    : Spanish
    Service kind                : Complete Main
    Default                     : No
    Forced                      : No

    Audio #3
    ID                          : 4
    Format                      : E-AC-3
    Format/Info                 : Enhanced AC-3
    Commercial name             : Dolby Digital Plus
    Codec ID                    : A_EAC3
    Duration                    : 57 min 43 s
    Bit rate mode               : Constant
    Bit rate                    : 640 kb/s
    Channel(s)                  : 6 channels
    Channel layout              : L R C LFE Ls Rs
    Sampling rate               : 48.0 kHz
    Frame rate                  : 31.250 FPS (1536 SPF)
    Compression mode            : Lossy
    Stream size                 : 264 MiB (7%)
    Title                       : Inglés [CinemaniaHDD]
    Language                    : English
    Service kind                : Complete Main
    Default                     : No
    Forced                      : No

    Text #1
    ID                          : 5
    Format                      : UTF-8
    Codec ID                    : S_TEXT/UTF8
    Codec ID/Info               : UTF-8 Plain Text
    Duration                    : 45 min 50 s
    Bit rate                    : 1 b/s
    Count of elements           : 24
    Stream size                 : 681 Bytes (0%)
    Title                       : Forzados [CinemaniaHDD]
    Language                    : Spanish
    Default                     : Yes
    Forced                      : Yes

    Text #2
    ID                          : 6
    Format                      : UTF-8
    Codec ID                    : S_TEXT/UTF8
    Codec ID/Info               : UTF-8 Plain Text
    Duration                    : 55 min 54 s
    Bit rate                    : 29 b/s
    Count of elements           : 381
    Stream size                 : 12.0 KiB (0%)
    Title                       : Español Latino [CinemaniaHDD]
    Language                    : Spanish
    Default                     : No
    Forced                      : No

    Text #3
    ID                          : 7
    Format                      : UTF-8
    Codec ID                    : S_TEXT/UTF8
    Codec ID/Info               : UTF-8 Plain Text
    Duration                    : 53 min 3 s
    Bit rate                    : 34 b/s
    Count of elements           : 511
    Stream size                 : 13.3 KiB (0%)
    Title                       : Inglés [CinemaniaHDD]
    Language                    : English
    Default                     : No
    Forced                      : No

    Menu
    00:00:00.000                : 1. Prime Video
    00:00:06.000                : 2. Disclaimer
    00:00:16.000                : Scene 3
    00:02:58.000                : 4. Title Sequence
    00:03:13.000                : Scene 5
    00:08:27.000                : Scene 6
    00:15:04.000                : Scene 7
    00:20:21.000                : Scene 8
    00:25:38.000                : Scene 9
    00:30:45.000                : Scene 10
    00:37:26.000                : Scene 11
    00:43:20.000                : Scene 12
    00:49:17.000                : Scene 13
    00:54:37.000                : 14. End Credits

     

  • Peso: 2.98 GiB Aprox ---- 29 GiB in 7 Chapters.

Sinopsis

Después de perder a sus padres en un misterioso incendio, Alice Hart, de nueve años, es criada por su abuela June en una granja de flores donde aprende que existen secretos dentro de los secretos. Pero años después, una traición revelada obliga a Alice a enfrentarse a su pasado.

Ficha técnica

Video trailer de la película

Enlaces de descarga

Rip de Bluray

Descargar The Lost Flowers of Alice Hart (2023) Primera Temporada AMZN WEB-DL 1080p Latino




Aportes de DPeliculasHDmega la pass es:dpeliculashdmega.org Aportes de CinemaniaHD la pass es:cinemaniahdd.com Aportes recientes:cinemaniahdd.net
Guardado en : Drama , Misterio , Series

Películas relacionadas

descargar The Lost Flowers of Alice Hart (2023) Primera Temporada AMZN WEB-DL 1080p Latino 1080p 1080p gratis, The Lost Flowers of Alice Hart (2023) Primera Temporada AMZN WEB-DL 1080p Latino 1080p mega 1 link, The Lost Flowers of Alice Hart (2023) Primera Temporada AMZN WEB-DL 1080p Latino 1080p serie completa, descargar The Lost Flowers of Alice Hart (2023) Primera Temporada AMZN WEB-DL 1080p Latino 1080p gratis en mega.

The Lost Flowers of Alice Hart (2023) Primera Temporada AMZN WEB-DL 1080p Latino pelicula full hd, The Lost Flowers of Alice Hart (2023) Primera Temporada AMZN WEB-DL 1080p Latino mega latino, The Lost Flowers of Alice Hart (2023) Primera Temporada AMZN WEB-DL 1080p Latino 4k latino, The Lost Flowers of Alice Hart (2023) Primera Temporada AMZN WEB-DL 1080p Latino pelicula completa, The Lost Flowers of Alice Hart (2023) Primera Temporada AMZN WEB-DL 1080p Latino descargar gratis, descargar The Lost Flowers of Alice Hart (2023) Primera Temporada AMZN WEB-DL 1080p Latino pelicula latino, The Lost Flowers of Alice Hart (2023) Primera Temporada AMZN WEB-DL 1080p Latino 1 link mega, The Lost Flowers of Alice Hart (2023) Primera Temporada AMZN WEB-DL 1080p Latino 1 link google drive, The Lost Flowers of Alice Hart (2023) Primera Temporada AMZN WEB-DL 1080p Latino hd 1080p latino.
Comentarios 0