×

¿Problemas para descargar con Mozilla, EDGE? Deshabilita la opción "Abrir vinculos en una pestaña nueva" tal como lo muestra ésta imagen.

The Lord of the Rings: The Rings of Power (2022) Temporada 1 AMZN WEB-DL 1080p Latino

152 vistas

Información de The Lord of the Rings: The Rings of Power (2022) Temporada 1 AMZN WEB-DL 1080p Latino

Datos de la película

  • Calidad: 1080p
  • Audio: Español Latino AC3 5.1 WEB-DL - Ingles AC3 5.1 WEB-DL
  • Subtitulos: Español Latino SRT- FORZADOS SRT
  • Resolución: 1920x800
  • Formato: MKV
  • Codec: H.264
  • Encoder: cinemaniahdd
  • Mediainfo: Clic para Mostrar Datos Ver
  • The Lord of the Rings - The Rings of Power S01E01 AMZN WEB-DL 1080p Latino [CNMNHDD].mkv
    Format                      : Matroska
    Format version              : Version 4
    File size                   : 4.24 GiB
    Duration                    : 1 h 5 min
    Overall bit rate            : 9 227 kb/s
    Movie name                  : The Lord of the Rings - The Rings of Power S01E01 - A Shadow of the Past [1080p] - CinemaniaHDD.Net
    Encoded date                : UTC 2022-09-02 01:07:08
    Writing application         : mkvmerge v56.1.0 ('My Friend') 64-bit
    Writing library             : libebml v1.4.2 + libmatroska v1.6.4

    Video
    ID                          : 1
    Format                      : AVC
    Format/Info                 : Advanced Video Codec
    Format profile              : High@L4
    Format settings             : CABAC / 4 Ref Frames
    Format settings, CABAC      : Yes
    Format settings, Reference  : 4 frames
    Codec ID                    : V_MPEG4/ISO/AVC
    Duration                    : 1 h 5 min
    Bit rate mode               : Constant
    Bit rate                    : 7 304 kb/s
    Nominal bit rate            : 10 000 kb/s
    Width                       : 1 920 pixels
    Height                      : 800 pixels
    Display aspect ratio        : 2.40:1
    Frame rate mode             : Constant
    Frame rate                  : 24.000 FPS
    Color space                 : YUV
    Chroma subsampling          : 4:2:0
    Bit depth                   : 8 bits
    Scan type                   : Progressive
    Bits/(Pixel*Frame)          : 0.198
    Stream size                 : 3.36 GiB (79%)
    Title                       : CinemaniaHDD
    Default                     : Yes
    Forced                      : No
    Color range                 : Limited
    Color primaries             : BT.709
    Transfer characteristics    : BT.709
    Matrix coefficients         : BT.709

    Audio #1
    ID                          : 2
    Format                      : AC-3
    Format/Info                 : Audio Coding 3
    Commercial name             : Dolby Digital
    Codec ID                    : A_AC3
    Duration                    : 1 h 5 min
    Bit rate mode               : Constant
    Bit rate                    : 640 kb/s
    Channel(s)                  : 6 channels
    Channel layout              : L R C LFE Ls Rs
    Sampling rate               : 48.0 kHz
    Frame rate                  : 31.250 FPS (1536 SPF)
    Compression mode            : Lossy
    Stream size                 : 301 MiB (7%)
    Title                       : Español latino [CinemaniaHDD]
    Language                    : Spanish
    Service kind                : Complete Main
    Default                     : Yes
    Forced                      : No

    Audio #2
    ID                          : 3
    Format                      : E-AC-3
    Format/Info                 : Enhanced AC-3
    Commercial name             : Dolby Digital Plus
    Codec ID                    : A_EAC3
    Duration                    : 1 h 5 min
    Bit rate mode               : Constant
    Bit rate                    : 640 kb/s
    Channel(s)                  : 6 channels
    Channel layout              : L R C LFE Ls Rs
    Sampling rate               : 48.0 kHz
    Frame rate                  : 31.250 FPS (1536 SPF)
    Compression mode            : Lossy
    Stream size                 : 301 MiB (7%)
    Title                       : Español latino / E-AC3 [CinemaniaHDD]
    Language                    : Spanish
    Service kind                : Complete Main
    Default                     : No
    Forced                      : No

    Audio #3
    ID                          : 4
    Format                      : E-AC-3
    Format/Info                 : Enhanced AC-3
    Commercial name             : Dolby Digital Plus
    Codec ID                    : A_EAC3
    Duration                    : 1 h 5 min
    Bit rate mode               : Constant
    Bit rate                    : 640 kb/s
    Channel(s)                  : 6 channels
    Channel layout              : L R C LFE Ls Rs
    Sampling rate               : 48.0 kHz
    Frame rate                  : 31.250 FPS (1536 SPF)
    Compression mode            : Lossy
    Stream size                 : 301 MiB (7%)
    Title                       : Inglés [CinemaniaHDD]
    Language                    : English
    Service kind                : Complete Main
    Default                     : No
    Forced                      : No

    Text #1
    ID                          : 5
    Format                      : UTF-8
    Codec ID                    : S_TEXT/UTF8
    Codec ID/Info               : UTF-8 Plain Text
    Duration                    : 48 min 56 s
    Bit rate                    : 0 b/s
    Count of elements           : 12
    Stream size                 : 335 Bytes (0%)
    Title                       : Forzados [CinemaniaHDD]
    Language                    : Spanish
    Default                     : Yes
    Forced                      : Yes

    Text #2
    ID                          : 6
    Format                      : UTF-8
    Codec ID                    : S_TEXT/UTF8
    Codec ID/Info               : UTF-8 Plain Text
    Duration                    : 1 h 2 min
    Bit rate                    : 42 b/s
    Count of elements           : 630
    Stream size                 : 19.6 KiB (0%)
    Title                       : Español latino [CinemaniaHDD]
    Language                    : Spanish
    Default                     : No
    Forced                      : No

    Text #3
    ID                          : 7
    Format                      : UTF-8
    Codec ID                    : S_TEXT/UTF8
    Codec ID/Info               : UTF-8 Plain Text
    Duration                    : 59 min 7 s
    Bit rate                    : 52 b/s
    Count of elements           : 761
    Stream size                 : 22.9 KiB (0%)
    Title                       : Inglés [CinemaniaHDD]
    Language                    : English
    Default                     : No
    Forced                      : No

    Menu
    00:00:00.000                : :Prime Video
    00:00:05.000                : :Scene 2
    00:02:12.000                : :Scene 3
    00:04:23.000                : :Scene 4
    00:04:52.000                : :Scene 5
    00:06:57.000                : :Scene 6
    00:07:29.000                : :Scene 7
    00:09:58.000                : :Scene 8
    00:11:43.000                : :Scene 9
    00:14:47.000                : :Scene 10
    00:17:27.000                : :Title Sequence
    00:17:36.000                : :Scene 12
    00:18:46.000                : :Scene 13
    00:20:29.000                : :Scene 14
    00:22:57.000                : :Scene 15
    00:24:16.000                : :Scene 16
    00:26:48.000                : :Scene 17
    00:27:28.000                : :Scene 18
    00:29:31.000                : :Scene 19
    00:31:53.000                : :Scene 20
    00:36:27.000                : :Scene 21
    00:37:46.000                : :Scene 22
    00:39:41.000                : :Scene 23
    00:41:23.000                : :Scene 24
    00:42:10.000                : :Scene 25
    00:42:49.000                : :Scene 26
    00:44:40.000                : :Scene 27
    00:46:32.000                : :Scene 28
    00:47:32.000                : :Scene 29
    00:49:15.000                : :Scene 30
    00:49:35.000                : :Scene 31
    00:51:28.000                : :Scene 32
    00:52:28.000                : :Scene 33
    00:53:47.000                : :Scene 34
    00:56:19.000                : :Scene 35
    00:56:33.000                : :Scene 36
    00:56:55.000                : :Scene 37
    00:57:07.000                : :Scene 38
    00:57:33.000                : :Scene 39
    00:58:09.000                : :Scene 40
    00:58:14.000                : :Scene 41
    00:58:40.000                : :Scene 42
    00:59:06.000                : :Scene 43
    00:59:42.000                : :End Credits

     

  • Peso: 4.24 GiB C/U --- 5 CAPITULOS AGREGADOS

Sinopsis

Un elenco familiar, y algunos personajes nuevos, deben enfrentarse al resurgimiento del mal en Tierra Media. Desde las profundidades más obscuras de las Montañas Nubladas, hasta los majestuosos bosques de Lindon, desde el Reino de la Isla de Númenor hasta los confines del mapa, estos reinos y personajes forjarán legados que vivirán por largo tiempo después de su partida.
5 CAPITULOS AGREGADOS

Ficha técnica

Video trailer de la película

Enlaces de descarga

Rip de Bluray

Descargar The Lord of the Rings: The Rings of Power (2022) Temporada 1 AMZN WEB-DL 1080p Latino




Aportes de DPeliculasHDmega la pass es:dpeliculashdmega.org Aportes de CinemaniaHD la pass es:cinemaniahdd.com

Películas relacionadas

descargar The Lord of the Rings: The Rings of Power (2022) Temporada 1 AMZN WEB-DL 1080p Latino 1080p 1080p gratis, The Lord of the Rings: The Rings of Power (2022) Temporada 1 AMZN WEB-DL 1080p Latino 1080p mega 1 link, The Lord of the Rings: The Rings of Power (2022) Temporada 1 AMZN WEB-DL 1080p Latino 1080p serie completa, descargar The Lord of the Rings: The Rings of Power (2022) Temporada 1 AMZN WEB-DL 1080p Latino 1080p gratis en mega.

The Lord of the Rings: The Rings of Power (2022) Temporada 1 AMZN WEB-DL 1080p Latino pelicula full hd, The Lord of the Rings: The Rings of Power (2022) Temporada 1 AMZN WEB-DL 1080p Latino mega latino, The Lord of the Rings: The Rings of Power (2022) Temporada 1 AMZN WEB-DL 1080p Latino 4k latino, The Lord of the Rings: The Rings of Power (2022) Temporada 1 AMZN WEB-DL 1080p Latino pelicula completa, The Lord of the Rings: The Rings of Power (2022) Temporada 1 AMZN WEB-DL 1080p Latino descargar gratis, descargar The Lord of the Rings: The Rings of Power (2022) Temporada 1 AMZN WEB-DL 1080p Latino pelicula latino, The Lord of the Rings: The Rings of Power (2022) Temporada 1 AMZN WEB-DL 1080p Latino 1 link mega, The Lord of the Rings: The Rings of Power (2022) Temporada 1 AMZN WEB-DL 1080p Latino 1 link google drive, The Lord of the Rings: The Rings of Power (2022) Temporada 1 AMZN WEB-DL 1080p Latino hd 1080p latino.
Comentarios 3
  • Leila - 09 septiembre, 2022

    ¿Cuantos minutos duran los capítulos? ¿Una Hora o 30 minutos?

    • CinemaniaHDD - 10 septiembre, 2022

      hola, una hora
      por qué lo preguntas?

  • ocpgaiden - 01 septiembre, 2022

    Gracias por los 2 primeros capitulos de los anillos de poder, saludos