×

¿Problemas para descargar con Mozilla, EDGE? Deshabilita la opción "Abrir vinculos en una pestaña nueva" tal como lo muestra ésta imagen.

The Lorax (1972) REMUX 1080p Latino

243 vistas

Información de The Lorax (1972) REMUX 1080p Latino

Datos de la película

  • Calidad: Full 1080p
  • Audio: Se especifica abajo de la Sinopsis
  • Subtitulos: Español Latino PGS - Ingles PGS
  • Resolución: 1920x1080p
  • Formato: MKV
  • Codec: H.264
  • Encoder: CinefiloCool
  • Mediainfo: Clic para Mostrar Datos Ver
  • The Lorax (1972) REMUX 1080p Latino-CMHDD.mkv
    Format                      : Matroska
    Format version              : Version 4
    File size                   : 3.88 GiB
    Duration                    : 24 min 57 s
    Overall bit rate mode       : Variable
    Overall bit rate            : 22.2 Mb/s
    Movie name                  : The Lorax (1972) Deluxe Edition CinemaniaHDD.Net
    Encoded date                : UTC 2021-09-15 06:32:22
    Writing application         : mkvmerge v56.1.0 ('My Friend') 64-bit
    Writing library             : libebml v1.4.2 + libmatroska v1.6.4
    Attachments                 : CINEMANIAHD.png

    Video
    ID                          : 1
    ID in the original source m : 4113 (0x1011)
    Format                      : AVC
    Format/Info                 : Advanced Video Codec
    Format profile              : High@L4.1
    Format settings             : CABAC / 2 Ref Frames
    Format settings, CABAC      : Yes
    Format settings, Reference  : 2 frames
    Format settings, GOP        : M=1, N=10
    Codec ID                    : V_MPEG4/ISO/AVC
    Duration                    : 24 min 57 s
    Bit rate mode               : Variable
    Bit rate                    : 20.9 Mb/s
    Width                       : 1 920 pixels
    Height                      : 1 080 pixels
    Display aspect ratio        : 16:9
    Frame rate mode             : Constant
    Frame rate                  : 23.976 (24000/1001) FPS
    Color space                 : YUV
    Chroma subsampling          : 4:2:0
    Bit depth                   : 8 bits
    Scan type                   : Progressive
    Bits/(Pixel*Frame)          : 0.420
    Stream size                 : 3.64 GiB (94%)
    Title                       : REMUX HD1080p [CinemaniaHDD]
    Default                     : Yes
    Forced                      : Yes
    Original source medium      : Blu-ray

    Audio #1
    ID                          : 2
    ID in the original source m : 4353 (0x1101)
    Format                      : AC-3
    Format/Info                 : Audio Coding 3
    Commercial name             : Dolby Digital
    Codec ID                    : A_AC3
    Duration                    : 24 min 57 s
    Bit rate mode               : Constant
    Bit rate                    : 192 kb/s
    Channel(s)                  : 1 channel
    Channel layout              : C
    Sampling rate               : 48.0 kHz
    Frame rate                  : 31.250 FPS (1536 SPF)
    Compression mode            : Lossy
    Stream size                 : 34.3 MiB (1%)
    Title                       : Español Latino [CinemaniaHDD]
    Language                    : Spanish
    Service kind                : Complete Main
    Default                     : Yes
    Forced                      : Yes
    Original source medium      : Blu-ray

    Audio #2
    ID                          : 3
    ID in the original source m : 4352 (0x1100)
    Format                      : DTS XLL
    Format/Info                 : Digital Theater Systems
    Commercial name             : DTS-HD Master Audio
    Codec ID                    : A_DTS
    Duration                    : 24 min 57 s
    Bit rate mode               : Variable
    Bit rate                    : 1 133 kb/s
    Channel(s)                  : 1 channel
    Channel layout              : C
    Sampling rate               : 48.0 kHz
    Frame rate                  : 93.750 FPS (512 SPF)
    Bit depth                   : 24 bits
    Compression mode            : Lossless
    Stream size                 : 202 MiB (5%)
    Title                       : Ingles [CinemaniaHDD]
    Language                    : English
    Default                     : No
    Forced                      : No
    Original source medium      : Blu-ray

    Text #1
    ID                          : 4
    ID in the original source m : 4610 (0x1202)
    Format                      : PGS
    Muxing mode                 : zlib
    Codec ID                    : S_HDMV/PGS
    Codec ID/Info               : Picture based subtitle format used on BDs/HD-DVDs
    Duration                    : 24 min 10 s
    Bit rate                    : 11.9 kb/s
    Count of elements           : 210
    Stream size                 : 2.05 MiB (0%)
    Title                       : Forzados-PGS [CinemaniaHDD]
    Language                    : Spanish
    Default                     : No
    Forced                      : No
    Original source medium      : Blu-ray

    Text #2
    ID                          : 5
    ID in the original source m : 4609 (0x1201)
    Format                      : PGS
    Muxing mode                 : zlib
    Codec ID                    : S_HDMV/PGS
    Codec ID/Info               : Picture based subtitle format used on BDs/HD-DVDs
    Duration                    : 24 min 40 s
    Bit rate                    : 40.8 kb/s
    Count of elements           : 748
    Stream size                 : 7.19 MiB (0%)
    Title                       : Español-PGS [CinemaniaHDD]
    Language                    : Spanish
    Default                     : No
    Forced                      : No
    Original source medium      : Blu-ray

    Text #3
    ID                          : 6
    ID in the original source m : 4608 (0x1200)
    Format                      : PGS
    Muxing mode                 : zlib
    Codec ID                    : S_HDMV/PGS
    Codec ID/Info               : Picture based subtitle format used on BDs/HD-DVDs
    Duration                    : 24 min 10 s
    Bit rate                    : 43.2 kb/s
    Count of elements           : 740
    Stream size                 : 7.48 MiB (0%)
    Title                       : Ingles-PGS [CinemaniaHDD]
    Language                    : English
    Default                     : No
    Forced                      : No
    Original source medium      : Blu-ray

    Text #4
    ID                          : 7
    Format                      : UTF-8
    Codec ID                    : S_TEXT/UTF8
    Codec ID/Info               : UTF-8 Plain Text
    Duration                    : 22 min 28 s
    Bit rate                    : 26 b/s
    Count of elements           : 104
    Stream size                 : 4.31 KiB (0%)
    Title                       : Forzados-SRT [CinemaniaHDD]
    Language                    : Spanish
    Default                     : Yes
    Forced                      : Yes

    Text #5
    ID                          : 8
    Format                      : UTF-8
    Codec ID                    : S_TEXT/UTF8
    Codec ID/Info               : UTF-8 Plain Text
    Duration                    : 23 min 49 s
    Bit rate                    : 82 b/s
    Count of elements           : 373
    Stream size                 : 14.5 KiB (0%)
    Title                       : Español-SRT [CinemaniaHDD]
    Language                    : Spanish
    Default                     : No
    Forced                      : No

    Menu
    00:00:00.000                : Chapter 01
    00:12:12.732                : Chapter 02
    00:24:15.537                : Chapter 03

  • Peso: 3.88 GiB

Sinopsis

Descargar The Lorax (1972) REMUX 1080p Latino. ‘The Lorax’ es la adaptación de un libro infantil escrito por el Dr. Seuss (historietista y poeta americano), publicado por primera vez en 1971. Narra la complicada situación que atraviesa el medioambiente y se centra en el personaje de The Lorax , que se comunica con los árboles y las plantas. Como antagonista, tenemos al codicioso y malvado personaje de Once-ler, que quiere destruir la naturaleza.

Audio Español Latino AC3 1.0 Bluray – DTS-HD 1.0 Bluray
Nota: Disponible Solo Para VIP!!! 😀

Ficha técnica

Video trailer de la película

Enlaces de descarga

Rip de Bluray

Descargar The Lorax (1972) REMUX 1080p Latino


Aportes de DPeliculasHDmega la pass es:dpeliculashdmega.org Aportes de CinemaniaHD la pass es:cinemaniahdd.com

Películas relacionadas

  • Mi amigo el dragón (2016) Full HD 1080p Latino

    Mi amigo el dragón (2016) Full HD 1080p Latino

    2016
    Mi amigo el dragón (2016) Full HD 1080p Latino

    1h 43m 2016

    Descargar Mi amigo el dragón (2016) Full HD 1080p Latino. Durante años el Sr. Meacham, un viejo tallador...

    Director: Joe Nolan

    Género: Aventura

    Actores: William J. Rawbone

  • Mi amigo el dragón (2016) REMUX 1080p Latino

    Mi amigo el dragón (2016) REMUX 1080p Latino

    2016
    Mi amigo el dragón (2016) REMUX 1080p Latino

    1h 43m 2016

    Descargar Mi amigo el dragón (2016) REMUX 1080p Latino. Durante años el Sr. Meacham, un viejo tallador...

    Director: Joe Nolan

    Género: Aventura

    Actores: William J. Rawbone

  • El discurso del Rey (2010) REMUX 1080p Latino

    El discurso del Rey (2010) REMUX 1080p Latino

    2010
    El discurso del Rey (2010) REMUX 1080p Latino

    1h 58m 2010

    Descargar El discurso del Rey (2010) REMUX 1080p Latino. El duque de York se convirtió en rey de Gran...

    Director: Tom Hooper

    Género: Drama

    Actores: Tony Earnshaw

descargar The Lorax (1972) REMUX 1080p Latino Full 1080p 1080p gratis, The Lorax (1972) REMUX 1080p Latino Full 1080p mega 1 link, The Lorax (1972) REMUX 1080p Latino Full 1080p pelicula completa, descargar The Lorax (1972) REMUX 1080p Latino Full 1080p gratis en mega.

The Lorax (1972) REMUX 1080p Latino pelicula full hd, The Lorax (1972) REMUX 1080p Latino mega latino, The Lorax (1972) REMUX 1080p Latino 4k latino, The Lorax (1972) REMUX 1080p Latino pelicula completa, The Lorax (1972) REMUX 1080p Latino descargar gratis, descargar The Lorax (1972) REMUX 1080p Latino pelicula latino, The Lorax (1972) REMUX 1080p Latino 1 link mega, The Lorax (1972) REMUX 1080p Latino 1 link google drive, The Lorax (1972) REMUX 1080p Latino hd 1080p latino.
Comentarios 0