×

¿Problemas para descargar con Mozilla, EDGE? Deshabilita la opción "Abrir vinculos en una pestaña nueva" tal como lo muestra ésta imagen.

Golpe Bajo: El Juego Final (2005) REMUX 1080p Latino

708 vistas

Información de Golpe Bajo: El Juego Final (2005) REMUX 1080p Latino

Datos de la película

  • Calidad: Full 1080p
  • Audio: Se especifica abajo de la Sinopsis
  • Subtitulos: Español Latino SRT- FORZADOS SRT
  • Resolución: 1920x1080p
  • Formato: MKV
  • Codec: H.264
  • Encoder: Dracarys | CinefiloCool
  • Mediainfo: Clic para Mostrar Datos Ver
  • Golpe Bajo El Juego Final (2005) REMUX 1080p Latino.mkv
    Format                      : Matroska
    Format version              : Version 4
    File size                   : 32.4 GiB
    Duration                    : 1 h 53 min
    Overall bit rate mode       : Variable
    Overall bit rate            : 40.9 Mb/s
    Movie name                  : The Longest Yard (2005) CinemaniaHDD.Net
    Encoded date                : UTC 2023-06-27 06:47:45
    Writing application         : mkvmerge v56.1.0 ('My Friend') 64-bit
    Writing library             : libebml v1.4.2 + libmatroska v1.6.4
    Attachments                 : CINEMANIAHD.png

    Video
    ID                          : 1
    Format                      : AVC
    Format/Info                 : Advanced Video Codec
    Format profile              : High@L4.1
    Format settings             : CABAC / 4 Ref Frames
    Format settings, CABAC      : Yes
    Format settings, Reference  : 4 frames
    Codec ID                    : V_MPEG4/ISO/AVC
    Duration                    : 1 h 53 min
    Bit rate mode               : Variable
    Bit rate                    : 35.7 Mb/s
    Maximum bit rate            : 38.0 Mb/s
    Width                       : 1 920 pixels
    Height                      : 1 080 pixels
    Display aspect ratio        : 16:9
    Frame rate mode             : Constant
    Frame rate                  : 23.976 (24000/1001) FPS
    Color space                 : YUV
    Chroma subsampling          : 4:2:0
    Bit depth                   : 8 bits
    Scan type                   : Progressive
    Bits/(Pixel*Frame)          : 0.717
    Stream size                 : 28.3 GiB (87%)
    Title                       : REMUX HD1080p [CinemaniaHDD]
    Language                    : English
    Default                     : Yes
    Forced                      : Yes

    Audio #1
    ID                          : 2
    Format                      : AC-3
    Format/Info                 : Audio Coding 3
    Commercial name             : Dolby Digital
    Codec ID                    : A_AC3
    Duration                    : 1 h 53 min
    Bit rate mode               : Constant
    Bit rate                    : 640 kb/s
    Channel(s)                  : 6 channels
    Channel layout              : L R C LFE Ls Rs
    Sampling rate               : 48.0 kHz
    Frame rate                  : 31.250 FPS (1536 SPF)
    Compression mode            : Lossy
    Stream size                 : 519 MiB (2%)
    Title                       : Español Latino AC3 [CinemaniaHDD]
    Language                    : Spanish
    Service kind                : Complete Main
    Default                     : Yes
    Forced                      : Yes

    Audio #2
    ID                          : 3
    Format                      : E-AC-3
    Format/Info                 : Enhanced AC-3
    Commercial name             : Dolby Digital Plus
    Codec ID                    : A_EAC3
    Duration                    : 1 h 53 min
    Bit rate mode               : Constant
    Bit rate                    : 640 kb/s
    Channel(s)                  : 6 channels
    Channel layout              : L R C LFE Ls Rs
    Sampling rate               : 48.0 kHz
    Frame rate                  : 31.250 FPS (1536 SPF)
    Compression mode            : Lossy
    Stream size                 : 519 MiB (2%)
    Title                       : Español Latino EAC3 [CinemaniaHDD]
    Language                    : Spanish
    Service kind                : Complete Main
    Default                     : No
    Forced                      : No

    Audio #3
    ID                          : 4
    Format                      : DTS XLL
    Format/Info                 : Digital Theater Systems
    Commercial name             : DTS-HD Master Audio
    Codec ID                    : A_DTS
    Duration                    : 1 h 53 min
    Bit rate mode               : Variable
    Bit rate                    : 3 969 kb/s
    Channel(s)                  : 6 channels
    Channel layout              : C L R Ls Rs LFE
    Sampling rate               : 48.0 kHz
    Frame rate                  : 93.750 FPS (512 SPF)
    Bit depth                   : 24 bits
    Compression mode            : Lossless
    Stream size                 : 3.15 GiB (10%)
    Title                       : Ingles [CinemaniaHDD]
    Language                    : English
    Default                     : No
    Forced                      : No

    Text #1
    ID                          : 5
    Format                      : UTF-8
    Codec ID                    : S_TEXT/UTF8
    Codec ID/Info               : UTF-8 Plain Text
    Duration                    : 1 h 45 min
    Bit rate                    : 0 b/s
    Count of elements           : 13
    Stream size                 : 267 Bytes (0%)
    Title                       : Forzados-SRT [CinemaniaHDD]
    Language                    : Spanish
    Default                     : Yes
    Forced                      : Yes

    Text #2
    ID                          : 6
    Format                      : UTF-8
    Codec ID                    : S_TEXT/UTF8
    Codec ID/Info               : UTF-8 Plain Text
    Duration                    : 1 h 46 min
    Bit rate                    : 68 b/s
    Count of elements           : 1615
    Stream size                 : 53.6 KiB (0%)
    Title                       : Español-SRT [CinemaniaHDD]
    Language                    : Spanish
    Default                     : No
    Forced                      : No

    Text #3
    ID                          : 7
    Format                      : PGS
    Muxing mode                 : zlib
    Codec ID                    : S_HDMV/PGS
    Codec ID/Info               : Picture based subtitle format used on BDs/HD-DVDs
    Duration                    : 1 h 45 min
    Bit rate                    : 46.3 kb/s
    Count of elements           : 3262
    Stream size                 : 34.8 MiB (0%)
    Title                       : Ingles [CinemaniaHDD]
    Language                    : English
    Default                     : No
    Forced                      : No

    Menu
    00:00:00.000                : Trained Monkey
    00:05:43.093                : A Very Public Break-Up
    00:08:25.004                : Welcome to Allenville
    00:14:51.474                : Hornet's Nest
    00:21:31.040                : Football Tree-Nuts
    00:26:54.863                : Nate Scarborough
    00:29:58.547                : Recruiting
    00:35:03.727                : One on One
    00:41:53.386                : Brokeded Nose
    00:45:34.148                : Snitch
    00:49:21.584                : There Goes the Neighborhood
    00:53:51.311                : Acting Like Convicts
    01:00:50.814                : Caretaker's Gifts
    01:08:31.024                : Mean Machine
    01:13:14.557                : Unsportsmanlike Conduct
    01:19:25.260                : Schoolyard Bull$#!+
    01:24:51.920                : Quite a Predicament
    01:31:35.782                : Confession
    01:38:01.250                : The Old Man's Turn
    01:44:14.123                : Game Ball

  • Peso: 32.4 GiB

Sinopsis

Descargar Golpe Bajo: El Juego Final (2005) REMUX 1080p Latino. Paul Crewe, un jugador de fútbol americano, y Nate Scarboro, entrenador y antiguo campeón, se encuentran cumpliendo condena en la misma prisión. Juntos deciden formar un equipo que juegue contra el de los guardias.

Audio Español Latino EAC3 5.1 + AC3 5.1 Netflix – Ingles DTS-HD 5.1 Bluray
RESUBIDA!!!

Ficha técnica

Video trailer de la película

Enlaces de descarga

Rip de Bluray

Descargar Golpe Bajo: El Juego Final (2005) REMUX 1080p Latino


Aportes de DPeliculasHDmega la pass es:dpeliculashdmega.org Aportes de CinemaniaHD la pass es:cinemaniahdd.com Aportes recientes:cinemaniahdd.net
Guardado en : Comedia , Remux

Películas relacionadas

descargar Golpe Bajo: El Juego Final (2005) REMUX 1080p Latino Full 1080p 1080p gratis, Golpe Bajo: El Juego Final (2005) REMUX 1080p Latino Full 1080p mega 1 link, Golpe Bajo: El Juego Final (2005) REMUX 1080p Latino Full 1080p pelicula completa, descargar Golpe Bajo: El Juego Final (2005) REMUX 1080p Latino Full 1080p gratis en mega.

Golpe Bajo: El Juego Final (2005) REMUX 1080p Latino pelicula full hd, Golpe Bajo: El Juego Final (2005) REMUX 1080p Latino mega latino, Golpe Bajo: El Juego Final (2005) REMUX 1080p Latino 4k latino, Golpe Bajo: El Juego Final (2005) REMUX 1080p Latino pelicula completa, Golpe Bajo: El Juego Final (2005) REMUX 1080p Latino descargar gratis, descargar Golpe Bajo: El Juego Final (2005) REMUX 1080p Latino pelicula latino, Golpe Bajo: El Juego Final (2005) REMUX 1080p Latino 1 link mega, Golpe Bajo: El Juego Final (2005) REMUX 1080p Latino 1 link google drive, Golpe Bajo: El Juego Final (2005) REMUX 1080p Latino hd 1080p latino.
Comentarios 0