×

¿Problemas para descargar con Mozilla, EDGE? Deshabilita la opción "Abrir vinculos en una pestaña nueva" tal como lo muestra ésta imagen.

The Longest Yard (2005) REMUX 1080p Latinon – CMHDD

66 vistas

Información de The Longest Yard (2005) REMUX 1080p Latinon – CMHDD

Datos de la película

  • Calidad: Full 1080p
  • Audio: Español Latino AC3 5.1 BLURAY - Ingles DTS 5.1 BLURAY
  • Subtitulos: Español Latino SRT- FORZADOS SRT
  • Resolución: 19201080p
  • Formato: MKV
  • Codec: H.264
  • Encoder: Dracarys
  • Mediainfo: Clic para Mostrar Datos Ver
  • Format                      : Matroska
    Format version              : Version 4
    File size                   : 31.9 GiB
    Duration                    : 1 h 53 min
    Overall bit rate mode       : Variable
    Overall bit rate            : 40.3 Mb/s
    Movie name                  : The Longest Yard (2005) REMUX 1080p Latinon - CMHDD
    Encoded date                : UTC 2024-01-14 21:23:51
    Writing application         : mkvmerge v47.0.0 ('Black Flag') 64-bit
    Writing library             : libebml v1.3.10 + libmatroska v1.5.2

    Video
    ID                          : 1
    ID in the original source m : 4113 (0x1011)
    Format                      : AVC
    Format/Info                 : Advanced Video Codec
    Format profile              : High@L4.1
    Format settings             : CABAC / 4 Ref Frames
    Format settings, CABAC      : Yes
    Format settings, Reference  : 4 frames
    Codec ID                    : V_MPEG4/ISO/AVC
    Duration                    : 1 h 53 min
    Bit rate mode               : Variable
    Bit rate                    : 35.7 Mb/s
    Maximum bit rate            : 38.0 Mb/s
    Width                       : 1 920 pixels
    Height                      : 1 080 pixels
    Display aspect ratio        : 16:9
    Frame rate mode             : Constant
    Frame rate                  : 23.976 (24000/1001) FPS
    Color space                 : YUV
    Chroma subsampling          : 4:2:0
    Bit depth                   : 8 bits
    Scan type                   : Progressive
    Bits/(Pixel*Frame)          : 0.717
    Stream size                 : 28.3 GiB (89%)
    Language                    : Spanish
    Default                     : Yes
    Forced                      : No
    Original source medium      : Blu-ray

    Audio #1
    ID                          : 2
    Format                      : AC-3
    Format/Info                 : Audio Coding 3
    Commercial name             : Dolby Digital
    Codec ID                    : A_AC3
    Duration                    : 1 h 53 min
    Bit rate mode               : Constant
    Bit rate                    : 640 kb/s
    Channel(s)                  : 6 channels
    Channel layout              : L R C LFE Ls Rs
    Sampling rate               : 44.1 kHz
    Frame rate                  : 28.711 FPS (1536 SPF)
    Compression mode            : Lossy
    Stream size                 : 519 MiB (2%)
    Language                    : Spanish
    Service kind                : Complete Main
    Default                     : Yes
    Forced                      : Yes

    Audio #2
    ID                          : 3
    ID in the original source m : 4352 (0x1100)
    Format                      : DTS XLL
    Format/Info                 : Digital Theater Systems
    Commercial name             : DTS-HD Master Audio
    Codec ID                    : A_DTS
    Duration                    : 1 h 53 min
    Bit rate mode               : Variable
    Bit rate                    : 3 969 kb/s
    Channel(s)                  : 6 channels
    Channel layout              : C L R Ls Rs LFE
    Sampling rate               : 48.0 kHz
    Frame rate                  : 93.750 FPS (512 SPF)
    Bit depth                   : 24 bits
    Compression mode            : Lossless
    Stream size                 : 3.15 GiB (10%)
    Language                    : English
    Default                     : No
    Forced                      : No
    Original source medium      : Blu-ray

    Text #1
    ID                          : 4
    Format                      : UTF-8
    Codec ID                    : S_TEXT/UTF8
    Codec ID/Info               : UTF-8 Plain Text
    Duration                    : 42 min 31 s
    Bit rate                    : 0 b/s
    Frame rate                  : 0.002 FPS
    Count of elements           : 4
    Stream size                 : 90.0 Bytes (0%)
    Title                       : Forzados
    Language                    : Spanish
    Default                     : Yes
    Forced                      : Yes

    Text #2
    ID                          : 5
    Format                      : UTF-8
    Codec ID                    : S_TEXT/UTF8
    Codec ID/Info               : UTF-8 Plain Text
    Duration                    : 1 h 46 min
    Bit rate                    : 71 b/s
    Frame rate                  : 0.253 FPS
    Count of elements           : 1614
    Stream size                 : 55.4 KiB (0%)
    Language                    : Spanish
    Default                     : No
    Forced                      : No

    Text #3
    ID                          : 6
    Format                      : PGS
    Muxing mode                 : zlib
    Codec ID                    : S_HDMV/PGS
    Codec ID/Info               : Picture based subtitle format used on BDs/HD-DVDs
    Duration                    : 1 h 46 min
    Bit rate                    : 32.3 kb/s
    Frame rate                  : 0.507 FPS
    Count of elements           : 3230
    Stream size                 : 24.5 MiB (0%)
    Language                    : Spanish
    Default                     : No
    Forced                      : No

    Menu
    00:00:00.000                : en:Chapter 01
    00:05:43.093                : en:Chapter 02
    00:08:25.004                : en:Chapter 03
    00:14:51.474                : en:Chapter 04
    00:21:31.040                : en:Chapter 05
    00:26:54.863                : en:Chapter 06
    00:29:58.547                : en:Chapter 07
    00:35:03.727                : en:Chapter 08
    00:41:53.386                : en:Chapter 09
    00:45:34.148                : en:Chapter 10
    00:49:21.584                : en:Chapter 11
    00:53:51.311                : en:Chapter 12
    01:00:50.814                : en:Chapter 13
    01:08:31.024                : en:Chapter 14
    01:13:14.557                : en:Chapter 15
    01:19:25.260                : en:Chapter 16
    01:24:51.920                : en:Chapter 17
    01:31:35.782                : en:Chapter 18
    01:38:01.250                : en:Chapter 19
    01:44:14.123                : en:Chapter 20

     

  • Peso: 31.9 GiB

Sinopsis

Paul Crewe, un jugador de fútbol americano, y Nate Scarboro, entrenador y antiguo campeón, se encuentran cumpliendo condena en la misma prisión. Juntos deciden formar un equipo que juegue contra el de los guardias.

Ficha técnica

Video trailer de la película

Enlaces de descarga

Rip de Bluray

Descargar The Longest Yard (2005) REMUX 1080p Latinon – CMHDD




Aportes de DPeliculasHDmega la pass es:dpeliculashdmega.org Aportes de CinemaniaHD la pass es:cinemaniahdd.com Aportes recientes:cinemaniahdd.net
Guardado en : Comedia , Crimen , Drama

Películas relacionadas

descargar The Longest Yard (2005) REMUX 1080p Latinon – CMHDD Full 1080p 1080p gratis, The Longest Yard (2005) REMUX 1080p Latinon – CMHDD Full 1080p mega 1 link, The Longest Yard (2005) REMUX 1080p Latinon – CMHDD Full 1080p pelicula completa, descargar The Longest Yard (2005) REMUX 1080p Latinon – CMHDD Full 1080p gratis en mega.

The Longest Yard (2005) REMUX 1080p Latinon – CMHDD pelicula full hd, The Longest Yard (2005) REMUX 1080p Latinon – CMHDD mega latino, The Longest Yard (2005) REMUX 1080p Latinon – CMHDD 4k latino, The Longest Yard (2005) REMUX 1080p Latinon – CMHDD pelicula completa, The Longest Yard (2005) REMUX 1080p Latinon – CMHDD descargar gratis, descargar The Longest Yard (2005) REMUX 1080p Latinon – CMHDD pelicula latino, The Longest Yard (2005) REMUX 1080p Latinon – CMHDD 1 link mega, The Longest Yard (2005) REMUX 1080p Latinon – CMHDD 1 link google drive, The Longest Yard (2005) REMUX 1080p Latinon – CMHDD hd 1080p latino.
Comentarios 0