×

¿Problemas para descargar con Mozilla, EDGE? Deshabilita la opción "Abrir vinculos en una pestaña nueva" tal como lo muestra ésta imagen.

James Bond: Su Nombre es Peligro (1987) REMUX 1080p Latino

354 vistas

Información de James Bond: Su Nombre es Peligro (1987) REMUX 1080p Latino

Datos de la película

  • Calidad: Full 1080p
  • Audio: Español Latino AC3 5.1 BLURAY - Ingles DTS 5.1 BLURAY
  • Subtitulos: Español Latino PGS - Ingles PGS
  • Resolución: 1920x1080p
  • Formato: MKV
  • Codec: H.264
  • Encoder: CinefiloCool
  • Mediainfo: Clic para Mostrar Datos Ver
  • Su Nombre Es Peligro (1987) REMUX 1080p Latino-CMHDD.mkv
    Format                      : Matroska
    Format version              : Version 4
    File size                   : 26.6 GiB
    Duration                    : 2 h 10 min
    Overall bit rate mode       : Variable
    Overall bit rate            : 29.1 Mb/s
    Movie name                  : The Living Daylights (1987) CinemaniaHDD.Net
    Encoded date                : UTC 2020-06-11 06:49:35
    Writing application         : mkvmerge v46.0.0 ('No Deeper Escape') 64-bit
    Writing library             : libebml v1.3.10 + libmatroska v1.5.2
    Attachments                 : CINEMANIAHD.png

    Video
    ID                          : 1
    Format                      : AVC
    Format/Info                 : Advanced Video Codec
    Format profile              : High@L4.1
    Format settings             : CABAC / 4 Ref Frames
    Format settings, CABAC      : Yes
    Format settings, Reference  : 4 frames
    Codec ID                    : V_MPEG4/ISO/AVC
    Duration                    : 2 h 10 min
    Bit rate mode               : Variable
    Bit rate                    : 25.9 Mb/s
    Maximum bit rate            : 34.0 Mb/s
    Width                       : 1 920 pixels
    Height                      : 1 080 pixels
    Display aspect ratio        : 16:9
    Frame rate mode             : Constant
    Frame rate                  : 23.976 (24000/1001) FPS
    Color space                 : YUV
    Chroma subsampling          : 4:2:0
    Bit depth                   : 8 bits
    Scan type                   : Progressive
    Bits/(Pixel*Frame)          : 0.521
    Stream size                 : 23.7 GiB (89%)
    Title                       : REMUX 1080p [CinemaniaHDD]
    Default                     : Yes
    Forced                      : Yes

    Audio #1
    ID                          : 2
    Format                      : AC-3
    Format/Info                 : Audio Coding 3
    Commercial name             : Dolby Digital
    Codec ID                    : A_AC3
    Duration                    : 2 h 10 min
    Bit rate mode               : Constant
    Bit rate                    : 448 kb/s
    Channel(s)                  : 6 channels
    Channel layout              : L R C LFE Ls Rs
    Sampling rate               : 48.0 kHz
    Frame rate                  : 31.250 FPS (1536 SPF)
    Compression mode            : Lossy
    Stream size                 : 419 MiB (2%)
    Title                       : Español Latino [CinemaniaHDD]
    Language                    : Spanish
    Service kind                : Complete Main
    Default                     : Yes
    Forced                      : Yes

    Audio #2
    ID                          : 3
    Format                      : DTS XLL
    Format/Info                 : Digital Theater Systems
    Commercial name             : DTS-HD Master Audio
    Codec ID                    : A_DTS
    Duration                    : 2 h 10 min
    Bit rate mode               : Variable
    Bit rate                    : 2 707 kb/s
    Channel(s)                  : 6 channels
    Channel layout              : C L R Ls Rs LFE
    Sampling rate               : 48.0 kHz
    Frame rate                  : 93.750 FPS (512 SPF)
    Bit depth                   : 24 bits
    Compression mode            : Lossless
    Stream size                 : 2.47 GiB (9%)
    Title                       : Ingles [CinemaniaHDD]
    Language                    : English
    Default                     : No
    Forced                      : No

    Text #1
    ID                          : 4
    Format                      : PGS
    Muxing mode                 : zlib
    Codec ID                    : S_HDMV/PGS
    Codec ID/Info               : Picture based subtitle format used on BDs/HD-DVDs
    Duration                    : 2 h 3 min
    Bit rate                    : 128 b/s
    Count of elements           : 12
    Stream size                 : 116 KiB (0%)
    Title                       : Forzados-PGS [CinemaniaHDD]
    Language                    : Spanish
    Default                     : Yes
    Forced                      : Yes

    Text #2
    ID                          : 5
    Format                      : PGS
    Muxing mode                 : zlib
    Codec ID                    : S_HDMV/PGS
    Codec ID/Info               : Picture based subtitle format used on BDs/HD-DVDs
    Duration                    : 2 h 9 min
    Bit rate                    : 20.6 kb/s
    Count of elements           : 1845
    Stream size                 : 19.2 MiB (0%)
    Title                       : Español-PGS [CinemaniaHDD]
    Language                    : Spanish
    Default                     : No
    Forced                      : No

    Text #3
    ID                          : 6
    Format                      : PGS
    Muxing mode                 : zlib
    Codec ID                    : S_HDMV/PGS
    Codec ID/Info               : Picture based subtitle format used on BDs/HD-DVDs
    Duration                    : 2 h 9 min
    Bit rate                    : 19.2 kb/s
    Count of elements           : 1515
    Stream size                 : 17.9 MiB (0%)
    Title                       : Ingles-PGS [CinemaniaHDD]
    Language                    : English
    Default                     : No
    Forced                      : No

    Text #4
    ID                          : 7
    Format                      : UTF-8
    Codec ID                    : S_TEXT/UTF8
    Codec ID/Info               : UTF-8 Plain Text
    Duration                    : 2 h 5 min
    Bit rate                    : 0 b/s
    Count of elements           : 20
    Stream size                 : 415 Bytes (0%)
    Title                       : Forzados-SRT [CinemaniaHDD]
    Language                    : Spanish
    Default                     : No
    Forced                      : No

    Text #5
    ID                          : 8
    Format                      : UTF-8
    Codec ID                    : S_TEXT/UTF8
    Codec ID/Info               : UTF-8 Plain Text
    Duration                    : 2 h 9 min
    Bit rate                    : 33 b/s
    Count of elements           : 913
    Stream size                 : 31.5 KiB (0%)
    Title                       : Español-SRT [CinemaniaHDD]
    Language                    : Spanish
    Default                     : No
    Forced                      : No

    Menu
    00:00:00.000                : en:Only an Exercise
    00:07:32.744                : en:Title
    00:10:18.743                : en:Vienna
    00:14:02.216                : en:Koskov Escapes
    00:17:02.647                : en:It's a Gas
    00:22:20.256                : en:Gadgets
    00:28:12.941                : en:The Milkman Cometh
    00:31:43.151                : en:Laughing Stock
    00:35:58.323                : en:Cellist
    00:39:38.209                : en:Apartment
    00:42:27.587                : en:Phoney Booth
    00:44:54.150                : en:Chase
    00:50:40.955                : en:Pushkin
    00:57:12.054                : en:Refund
    00:59:02.247                : en:Cello
    01:02:31.164                : en:Big Wheel
    01:07:36.219                : en:Room Service
    01:12:42.358                : en:Assassin
    01:17:39.655                : en:Set Up
    01:20:26.822                : en:Up in the Air
    01:24:18.345                : en:Afghanistahn
    01:28:53.703                : en:Escape
    01:33:16.174                : en:Bedouin
    01:37:04.068                : en:Smuggling
    01:42:21.177                : en:Airbase
    01:49:25.267                : en:Departure
    01:52:04.468                : en:Turbulence
    01:56:52.631                : en:Bridgebusters
    01:58:35.608                : en:Disembarkment
    02:00:45.780                : en:Karachi
    02:05:31.733                : en:Solo
    02:08:13.394                : en:Credits

  • Peso: 26.6 GiB

Sinopsis

Descargar James Bond: Su Nombre es Peligro (1987) REMUX 1080p Latino. El agente 007 se enfrenta a una nueva misión en Bratislava: ha sido designado expresamente por el general Koskov para que lo proteja al desertar de la KGB. Tras escapar hacia Austria, Koskov se reúne con la organización de Bond en Londres para ponerlos al corriente de los planes de general Puskin, que tiene la intención de asesinar a una serie de agentes británicos. Bond no cree la historia de Koskov, más aún cuando éste es capturado de nuevo por la KGB. Para dar con el paradero de Koskov, Bond regresa a Bratislav, donde encuentra a la novia del general, que también corre peligro. La ayuda a escapar, y descubre que Koskov se halla en Tanger junto al general Whitaker, traficante de armas.

Ficha técnica

Video trailer de la película

Enlaces de descarga

Rip de Bluray

Descargar James Bond: Su Nombre es Peligro (1987) REMUX 1080p Latino




Aportes de DPeliculasHDmega la pass es:dpeliculashdmega.org Aportes de CinemaniaHD la pass es:cinemaniahdd.com
Guardado en : Acción , Aventura , Remux , Suspenso

Películas relacionadas

  • Zola (2020) REMUX 1080p Latino

    Zola (2020) REMUX 1080p Latino

    2020
    Zola (2020) REMUX 1080p Latino

    1h 26m 2020

    Descargar Zola (2020) REMUX 1080p Latino. Una camarera accede a acompañar a una bailarina exótica,...

    Director: Sheri Davani

    Género: Comedia

    Actores: Ts Madison

  • Hocus Pocus: Abracadabra (1993) REMUX 1080p Latino

    Hocus Pocus: Abracadabra (1993) REMUX 1080p Latino

    1993
    Hocus Pocus: Abracadabra (1993) REMUX 1080p Latino

    1h 36m 1993

    Descargar Hocus Pocus: Abracadabra (1993) REMUX 1080p Latino. Tres brujas del siglo XII son invocadas...

    Director: Kenny Ortega

    Género: Comedia

    Actores: Vinessa Shaw

  • DC Liga De Supermascotas (2022) HD 1080p Latino

    DC Liga De Supermascotas (2022) HD 1080p Latino

    2022
    DC Liga De Supermascotas (2022) HD 1080p Latino

    1h 45m 2022

    Descargar DC Liga De Supermascotas (2022) HD 1080p Latino. Krypto el Superperro y Superman son amigos...

    Director: Sam Levine

    Género: Acción

    Actores: Yvette Nicole Brown

descargar James Bond: Su Nombre es Peligro (1987) REMUX 1080p Latino Full 1080p 1080p gratis, James Bond: Su Nombre es Peligro (1987) REMUX 1080p Latino Full 1080p mega 1 link, James Bond: Su Nombre es Peligro (1987) REMUX 1080p Latino Full 1080p pelicula completa, descargar James Bond: Su Nombre es Peligro (1987) REMUX 1080p Latino Full 1080p gratis en mega.

James Bond: Su Nombre es Peligro (1987) REMUX 1080p Latino pelicula full hd, James Bond: Su Nombre es Peligro (1987) REMUX 1080p Latino mega latino, James Bond: Su Nombre es Peligro (1987) REMUX 1080p Latino 4k latino, James Bond: Su Nombre es Peligro (1987) REMUX 1080p Latino pelicula completa, James Bond: Su Nombre es Peligro (1987) REMUX 1080p Latino descargar gratis, descargar James Bond: Su Nombre es Peligro (1987) REMUX 1080p Latino pelicula latino, James Bond: Su Nombre es Peligro (1987) REMUX 1080p Latino 1 link mega, James Bond: Su Nombre es Peligro (1987) REMUX 1080p Latino 1 link google drive, James Bond: Su Nombre es Peligro (1987) REMUX 1080p Latino hd 1080p latino.
Comentarios 0