×

¿Problemas para descargar con Mozilla, EDGE? Deshabilita la opción "Abrir vinculos en una pestaña nueva" tal como lo muestra ésta imagen.

James Bond: Su Nombre es Peligro (1987) 1080p Latino

348 vistas

Información de James Bond: Su Nombre es Peligro (1987) 1080p Latino

Datos de la película

  • Calidad: 1080p
  • Audio: Español Latino AC3 5.1 BLURAY - Ingles AC3 5.1 BLURAY
  • Subtitulos: Español Latino SRT - Ingles SRT
  • Resolución: 190x818p
  • Formato: MKV
  • Codec: H.264
  • Encoder: CinefiloCool
  • Mediainfo: Clic para Mostrar Datos Ver
  • Su Nombre Es Peligro (1987) 1080p Latino-CMHDD.mkv
    Format                      : Matroska
    Format version              : Version 4
    File size                   : 4.74 GiB
    Duration                    : 2 h 10 min
    Overall bit rate mode       : Variable
    Overall bit rate            : 5 185 kb/s
    Movie name                  : The Living Daylights (1987) CinemaniaHDD.Net
    Encoded date                : UTC 2020-06-11 06:53:00
    Writing application         : mkvmerge v46.0.0 ('No Deeper Escape') 64-bit
    Writing library             : libebml v1.3.10 + libmatroska v1.5.2
    Attachments                 : CINEMANIAHD.png

    Video
    ID                          : 1
    Format                      : AVC
    Format/Info                 : Advanced Video Codec
    Format profile              : High@L4
    Format settings             : CABAC / 3 Ref Frames
    Format settings, CABAC      : Yes
    Format settings, Reference  : 3 frames
    Codec ID                    : V_MPEG4/ISO/AVC
    Duration                    : 2 h 10 min
    Bit rate mode               : Variable
    Bit rate                    : 4 096 kb/s
    Width                       : 1 920 pixels
    Height                      : 818 pixels
    Display aspect ratio        : 2.35:1
    Frame rate mode             : Constant
    Frame rate                  : 23.976 (24000/1001) FPS
    Color space                 : YUV
    Chroma subsampling          : 4:2:0
    Bit depth                   : 8 bits
    Scan type                   : Progressive
    Bits/(Pixel*Frame)          : 0.109
    Stream size                 : 3.74 GiB (79%)
    Title                       : HD1080p [CinemaniaHDD]
    Writing library             : x264 core 142 r2479 dd79a61
    Encoding settings           : cabac=1 / ref=3 / deblock=1:0:0 / analyse=0x3:0x113 / me=hex / subme=7 / psy=1 / psy_rd=1.00:0.00 / mixed_ref=1 / me_range=16 / chroma_me=1 / trellis=1 / 8x8dct=1 / cqm=0 / deadzone=21,11 / fast_pskip=1 / chroma_qp_offset=-2 / threads=6 / lookahead_threads=1 / sliced_threads=0 / nr=0 / decimate=1 / interlaced=0 / bluray_compat=0 / constrained_intra=0 / bframes=3 / b_pyramid=0 / b_adapt=1 / b_bias=0 / direct=1 / weightb=1 / open_gop=0 / weightp=2 / keyint=240 / keyint_min=24 / scenecut=40 / intra_refresh=0 / rc_lookahead=40 / rc=2pass / mbtree=1 / bitrate=4096 / ratetol=1.0 / qcomp=0.60 / qpmin=0 / qpmax=69 / qpstep=4 / cplxblur=20.0 / qblur=0.5 / vbv_maxrate=25000 / vbv_bufsize=25000 / nal_hrd=vbr / filler=0 / ip_ratio=1.40 / aq=1:1.00
    Default                     : Yes
    Forced                      : No

    Audio #1
    ID                          : 2
    Format                      : AC-3
    Format/Info                 : Audio Coding 3
    Commercial name             : Dolby Digital
    Codec ID                    : A_AC3
    Duration                    : 2 h 10 min
    Bit rate mode               : Constant
    Bit rate                    : 448 kb/s
    Channel(s)                  : 6 channels
    Channel layout              : L R C LFE Ls Rs
    Sampling rate               : 48.0 kHz
    Frame rate                  : 31.250 FPS (1536 SPF)
    Compression mode            : Lossy
    Stream size                 : 419 MiB (9%)
    Title                       : Español Latino [CinemaniaHDD]
    Language                    : Spanish
    Service kind                : Complete Main
    Default                     : Yes
    Forced                      : Yes

    Audio #2
    ID                          : 3
    Format                      : AC-3
    Format/Info                 : Audio Coding 3
    Commercial name             : Dolby Digital
    Codec ID                    : A_AC3
    Duration                    : 2 h 10 min
    Bit rate mode               : Constant
    Bit rate                    : 640 kb/s
    Channel(s)                  : 6 channels
    Channel layout              : L R C LFE Ls Rs
    Sampling rate               : 48.0 kHz
    Frame rate                  : 31.250 FPS (1536 SPF)
    Compression mode            : Lossy
    Stream size                 : 599 MiB (12%)
    Title                       : Ingles [CinemaniaHDD]
    Language                    : English
    Service kind                : Complete Main
    Default                     : No
    Forced                      : No

    Text #1
    ID                          : 4
    Format                      : UTF-8
    Codec ID                    : S_TEXT/UTF8
    Codec ID/Info               : UTF-8 Plain Text
    Duration                    : 2 h 5 min
    Bit rate                    : 0 b/s
    Count of elements           : 20
    Stream size                 : 415 Bytes (0%)
    Title                       : Forzados-SRT [CinemaniaHDD]
    Language                    : Spanish
    Default                     : Yes
    Forced                      : No

    Text #2
    ID                          : 5
    Format                      : UTF-8
    Codec ID                    : S_TEXT/UTF8
    Codec ID/Info               : UTF-8 Plain Text
    Duration                    : 2 h 9 min
    Bit rate                    : 33 b/s
    Count of elements           : 913
    Stream size                 : 31.5 KiB (0%)
    Title                       : Español-SRT [CinemaniaHDD]
    Language                    : Spanish
    Default                     : No
    Forced                      : No

    Text #3
    ID                          : 6
    Format                      : UTF-8
    Codec ID                    : S_TEXT/UTF8
    Codec ID/Info               : UTF-8 Plain Text
    Duration                    : 2 h 7 min
    Bit rate                    : 31 b/s
    Count of elements           : 755
    Stream size                 : 28.9 KiB (0%)
    Title                       : Ingles-SRT [CinemaniaHDD]
    Language                    : English
    Default                     : No
    Forced                      : No

    Menu
    00:00:00.000                : en:Only an Exercise
    00:07:32.744                : en:Title
    00:10:18.743                : en:Vienna
    00:14:02.216                : en:Koskov Escapes
    00:17:02.647                : en:It's a Gas
    00:22:20.256                : en:Gadgets
    00:28:12.941                : en:The Milkman Cometh
    00:31:43.151                : en:Laughing Stock
    00:35:58.323                : en:Cellist
    00:39:38.209                : en:Apartment
    00:42:27.587                : en:Phoney Booth
    00:44:54.150                : en:Chase
    00:50:40.955                : en:Pushkin
    00:57:12.054                : en:Refund
    00:59:02.247                : en:Cello
    01:02:31.164                : en:Big Wheel
    01:07:36.219                : en:Room Service
    01:12:42.358                : en:Assassin
    01:17:39.655                : en:Set Up
    01:20:26.822                : en:Up in the Air
    01:24:18.345                : en:Afghanistahn
    01:28:53.703                : en:Escape
    01:33:16.174                : en:Bedouin
    01:37:04.068                : en:Smuggling
    01:42:21.177                : en:Airbase
    01:49:25.267                : en:Departure
    01:52:04.468                : en:Turbulence
    01:56:52.631                : en:Bridgebusters
    01:58:35.608                : en:Disembarkment
    02:00:45.780                : en:Karachi
    02:05:31.733                : en:Solo
    02:08:13.394                : en:Credits

  • Peso: 4.74 GiB

Sinopsis

Descargar James Bond: Su Nombre es Peligro (1987) 1080p Latino. El agente 007 se enfrenta a una nueva misión en Bratislava: ha sido designado expresamente por el general Koskov para que lo proteja al desertar de la KGB. Tras escapar hacia Austria, Koskov se reúne con la organización de Bond en Londres para ponerlos al corriente de los planes de general Puskin, que tiene la intención de asesinar a una serie de agentes británicos. Bond no cree la historia de Koskov, más aún cuando éste es capturado de nuevo por la KGB. Para dar con el paradero de Koskov, Bond regresa a Bratislav, donde encuentra a la novia del general, que también corre peligro. La ayuda a escapar, y descubre que Koskov se halla en Tanger junto al general Whitaker, traficante de armas.

Ficha técnica

Video trailer de la película

Enlaces de descarga

Rip de Bluray

Descargar James Bond: Su Nombre es Peligro (1987) 1080p Latino




Aportes de DPeliculasHDmega la pass es:dpeliculashdmega.org Aportes de CinemaniaHD la pass es:cinemaniahdd.com
Guardado en : Acción , Aventura , HD 1080p , Suspenso

Películas relacionadas

descargar James Bond: Su Nombre es Peligro (1987) 1080p Latino 1080p 1080p gratis, James Bond: Su Nombre es Peligro (1987) 1080p Latino 1080p mega 1 link, James Bond: Su Nombre es Peligro (1987) 1080p Latino 1080p pelicula completa, descargar James Bond: Su Nombre es Peligro (1987) 1080p Latino 1080p gratis en mega.

James Bond: Su Nombre es Peligro (1987) 1080p Latino pelicula full hd, James Bond: Su Nombre es Peligro (1987) 1080p Latino mega latino, James Bond: Su Nombre es Peligro (1987) 1080p Latino 4k latino, James Bond: Su Nombre es Peligro (1987) 1080p Latino pelicula completa, James Bond: Su Nombre es Peligro (1987) 1080p Latino descargar gratis, descargar James Bond: Su Nombre es Peligro (1987) 1080p Latino pelicula latino, James Bond: Su Nombre es Peligro (1987) 1080p Latino 1 link mega, James Bond: Su Nombre es Peligro (1987) 1080p Latino 1 link google drive, James Bond: Su Nombre es Peligro (1987) 1080p Latino hd 1080p latino.
Comentarios 0