×

¿Problemas para descargar con Mozilla, EDGE? Deshabilita la opción "Abrir vinculos en una pestaña nueva" tal como lo muestra ésta imagen.

The Legend of Vox Machina (2023) Temporada 2 AMZN WEB-DL 1080p Latino

50 vistas

Información de The Legend of Vox Machina (2023) Temporada 2 AMZN WEB-DL 1080p Latino

Datos de la película

  • Calidad: 1080p
  • Audio: Español Latino AC3 5.1 WEB-DL - Ingles AC3 5.1 WEB-DL
  • Subtitulos: Español Latino SRT- FORZADOS SRT
  • Resolución: 1920x1080
  • Formato: MKV
  • Codec: H.264
  • Encoder: cinemaniahdd
  • Mediainfo: Clic para Mostrar Datos Ver
  • Legend of Vox Machina T02E01 AMZN WEB-DL 1080p Latino [CNMNHDD].mkv Format                      : Matroska Format version              : Version 4 File size                   : 1.92 GiB Duration                    : 24 min 36 s Overall bit rate            : 11.2 Mb/s Movie name                  : Legend of Vox Machina S02E01 - Rise of the Chroma Conclave [1080p] - CinemaniaHDD.Net Encoded date                : UTC 2023-01-20 00:19:43 Writing application         : mkvmerge v56.1.0 ('My Friend') 64-bit Writing library             : libebml v1.4.2 + libmatroska v1.6.4 Video ID                          : 1 Format                      : AVC Format/Info                 : Advanced Video Codec Format profile              : High@L4 Format settings             : CABAC / 4 Ref Frames Format settings, CABAC      : Yes Format settings, Reference  : 4 frames Codec ID                    : V_MPEG4/ISO/AVC Duration                    : 24 min 36 s Bit rate mode               : Constant Bit rate                    : 9 242 kb/s Nominal bit rate            : 10 000 kb/s Width                       : 1 920 pixels Height                      : 1 080 pixels Display aspect ratio        : 16:9 Frame rate mode             : Constant Frame rate                  : 23.976 (24000/1001) FPS Color space                 : YUV Chroma subsampling          : 4:2:0 Bit depth                   : 8 bits Scan type                   : Progressive Bits/(Pixel*Frame)          : 0.186 Stream size                 : 1.59 GiB (83%) Title                       : CinemaniaHDD Default                     : Yes Forced                      : No Color range                 : Limited Color primaries             : BT.709 Transfer characteristics    : BT.709 Matrix coefficients         : BT.709 Audio #1 ID                          : 2 Format                      : AC-3 Format/Info                 : Audio Coding 3 Commercial name             : Dolby Digital Codec ID                    : A_AC3 Duration                    : 24 min 36 s Bit rate mode               : Constant Bit rate                    : 640 kb/s Channel(s)                  : 6 channels Channel layout              : L R C LFE Ls Rs Sampling rate               : 48.0 kHz Frame rate                  : 31.250 FPS (1536 SPF) Compression mode            : Lossy Stream size                 : 113 MiB (6%) Title                       : Español latino [CinemaniaHDD] Language                    : Spanish Service kind                : Complete Main Default                     : Yes Forced                      : No Audio #2 ID                          : 3 Format                      : E-AC-3 Format/Info                 : Enhanced AC-3 Commercial name             : Dolby Digital Plus Codec ID                    : A_EAC3 Duration                    : 24 min 36 s Bit rate mode               : Constant Bit rate                    : 640 kb/s Channel(s)                  : 6 channels Channel layout              : L R C LFE Ls Rs Sampling rate               : 48.0 kHz Frame rate                  : 31.250 FPS (1536 SPF) Compression mode            : Lossy Stream size                 : 113 MiB (6%) Title                       : Español latino / E-AC3 [CinemaniaHDD] Language                    : Spanish Service kind                : Complete Main Default                     : No Forced                      : No Audio #3 ID                          : 4 Format                      : E-AC-3 Format/Info                 : Enhanced AC-3 Commercial name             : Dolby Digital Plus Codec ID                    : A_EAC3 Duration                    : 24 min 36 s Bit rate mode               : Constant Bit rate                    : 640 kb/s Channel(s)                  : 6 channels Channel layout              : L R C LFE Ls Rs Sampling rate               : 48.0 kHz Frame rate                  : 31.250 FPS (1536 SPF) Compression mode            : Lossy Stream size                 : 113 MiB (6%) Title                       : Inglés [CinemaniaHDD] Language                    : English Service kind                : Complete Main Default                     : No Forced                      : No Text #1 ID                          : 5 Format                      : UTF-8 Codec ID                    : S_TEXT/UTF8 Codec ID/Info               : UTF-8 Plain Text Duration                    : 4 s 922 ms Bit rate                    : 40 b/s Count of elements           : 1 Stream size                 : 25.0 Bytes (0%) Title                       : Forzados [CinemaniaHDD] Language                    : Spanish Default                     : Yes Forced                      : Yes Text #2 ID                          : 6 Format                      : UTF-8 Codec ID                    : S_TEXT/UTF8 Codec ID/Info               : UTF-8 Plain Text Duration                    : 23 min 21 s Bit rate                    : 51 b/s Count of elements           : 282 Stream size                 : 8.87 KiB (0%) Title                       : Español latino [CinemaniaHDD] Language                    : Spanish Default                     : No Forced                      : No Menu 00:00:00.000                : Prime Video 00:00:06.000                : Scene 2 00:03:14.000                : Title Sequence 00:03:20.000                : Scene 4 00:07:35.000                : Scene 5 00:12:02.000                : Scene 6 00:16:20.000                : Scene 7 00:19:33.000                : Scene 8 00:22:44.000                : End Credits  
  • Peso: 1.92 GiB C/U --- 9 CAPITULOS AGREGADOS

Sinopsis

¡El Cónclave Cromático ataca! La maldad de los dragones está cubriendo toda Tal’Dorei. ¿Podrá Vox Machina detenerlos antes de que propaguen por todo el mundo?
9 CAPITULOS AGREGADOS

Ficha técnica

Video trailer de la película

Enlaces de descarga

Rip de Bluray

Descargar The Legend of Vox Machina (2023) Temporada 2 AMZN WEB-DL 1080p Latino




Aportes de DPeliculasHDmega la pass es:dpeliculashdmega.org Aportes de CinemaniaHD la pass es:cinemaniahdd.com

Películas relacionadas

descargar The Legend of Vox Machina (2023) Temporada 2 AMZN WEB-DL 1080p Latino 1080p 1080p gratis, The Legend of Vox Machina (2023) Temporada 2 AMZN WEB-DL 1080p Latino 1080p mega 1 link, The Legend of Vox Machina (2023) Temporada 2 AMZN WEB-DL 1080p Latino 1080p serie completa, descargar The Legend of Vox Machina (2023) Temporada 2 AMZN WEB-DL 1080p Latino 1080p gratis en mega.

The Legend of Vox Machina (2023) Temporada 2 AMZN WEB-DL 1080p Latino pelicula full hd, The Legend of Vox Machina (2023) Temporada 2 AMZN WEB-DL 1080p Latino mega latino, The Legend of Vox Machina (2023) Temporada 2 AMZN WEB-DL 1080p Latino 4k latino, The Legend of Vox Machina (2023) Temporada 2 AMZN WEB-DL 1080p Latino pelicula completa, The Legend of Vox Machina (2023) Temporada 2 AMZN WEB-DL 1080p Latino descargar gratis, descargar The Legend of Vox Machina (2023) Temporada 2 AMZN WEB-DL 1080p Latino pelicula latino, The Legend of Vox Machina (2023) Temporada 2 AMZN WEB-DL 1080p Latino 1 link mega, The Legend of Vox Machina (2023) Temporada 2 AMZN WEB-DL 1080p Latino 1 link google drive, The Legend of Vox Machina (2023) Temporada 2 AMZN WEB-DL 1080p Latino hd 1080p latino.
Comentarios 0