×

¿Problemas para descargar con Mozilla, EDGE? Deshabilita la opción "Abrir vinculos en una pestaña nueva" tal como lo muestra ésta imagen.

The Legend of Vox Machina (2022) Temporada 1 AMZN WEB-DL 1080p Latino

2.382 vistas

Información de The Legend of Vox Machina (2022) Temporada 1 AMZN WEB-DL 1080p Latino

Datos de la película

  • Calidad: 1080p
  • Audio: Español Latino AC3 5.1 WEB-DL - Ingles AC3 5.1 WEB-DL
  • Subtitulos: Español Latino SRT- FORZADOS SRT
  • Resolución: 1920x1080
  • Formato: MKV
  • Codec: H.264
  • Encoder: cinemaniahdd
  • Mediainfo: Clic para Mostrar Datos Ver
  • The Legend of Vox Machina T01E01 AMZN WEB-DL 1080p Latino [CNMNHDD].mkv
    Format                      : Matroska
    Format version              : Version 4
    File size                   : 2.12 GiB
    Duration                    : 27 min 7 s
    Overall bit rate            : 11.2 Mb/s
    Movie name                  : The Legend of Vox Machina T01E01 - CinemaniaHDD.Net
    Encoded date                : UTC 2022-01-28 00:17:41
    Writing application         : mkvmerge v56.1.0 ('My Friend') 64-bit
    Writing library             : libebml v1.4.2 + libmatroska v1.6.4

    Video
    ID                          : 1
    Format                      : AVC
    Format/Info                 : Advanced Video Codec
    Format profile              : High@L4
    Format settings             : CABAC / 4 Ref Frames
    Format settings, CABAC      : Yes
    Format settings, Reference  : 4 frames
    Codec ID                    : V_MPEG4/ISO/AVC
    Duration                    : 27 min 7 s
    Bit rate mode               : Constant
    Bit rate                    : 9 254 kb/s
    Nominal bit rate            : 10 000 kb/s
    Width                       : 1 920 pixels
    Height                      : 1 080 pixels
    Display aspect ratio        : 16:9
    Frame rate mode             : Constant
    Frame rate                  : 23.976 (24000/1001) FPS
    Color space                 : YUV
    Chroma subsampling          : 4:2:0
    Bit depth                   : 8 bits
    Scan type                   : Progressive
    Bits/(Pixel*Frame)          : 0.186
    Stream size                 : 1.75 GiB (83%)
    Title                       : CinemaniaHDD
    Default                     : Yes
    Forced                      : No
    Color range                 : Limited
    Color primaries             : BT.709
    Transfer characteristics    : BT.709
    Matrix coefficients         : BT.709

    Audio #1
    ID                          : 2
    Format                      : AC-3
    Format/Info                 : Audio Coding 3
    Commercial name             : Dolby Digital
    Codec ID                    : A_AC3
    Duration                    : 27 min 7 s
    Bit rate mode               : Constant
    Bit rate                    : 640 kb/s
    Channel(s)                  : 6 channels
    Channel layout              : L R C LFE Ls Rs
    Sampling rate               : 48.0 kHz
    Frame rate                  : 31.250 FPS (1536 SPF)
    Compression mode            : Lossy
    Stream size                 : 124 MiB (6%)
    Title                       : Español latino [CinemaniaHDD]
    Language                    : Spanish
    Service kind                : Complete Main
    Default                     : Yes
    Forced                      : No

    Audio #2
    ID                          : 3
    Format                      : E-AC-3
    Format/Info                 : Enhanced AC-3
    Commercial name             : Dolby Digital Plus
    Codec ID                    : A_EAC3
    Duration                    : 27 min 7 s
    Bit rate mode               : Constant
    Bit rate                    : 640 kb/s
    Channel(s)                  : 6 channels
    Channel layout              : L R C LFE Ls Rs
    Sampling rate               : 48.0 kHz
    Frame rate                  : 31.250 FPS (1536 SPF)
    Compression mode            : Lossy
    Stream size                 : 124 MiB (6%)
    Title                       : Inglés [CinemaniaHDD]
    Language                    : English
    Service kind                : Complete Main
    Default                     : No
    Forced                      : No

    Audio #3
    ID                          : 4
    Format                      : E-AC-3
    Format/Info                 : Enhanced AC-3
    Commercial name             : Dolby Digital Plus
    Codec ID                    : A_EAC3
    Duration                    : 27 min 7 s
    Bit rate mode               : Constant
    Bit rate                    : 640 kb/s
    Channel(s)                  : 6 channels
    Channel layout              : L R C LFE Ls Rs
    Sampling rate               : 48.0 kHz
    Frame rate                  : 31.250 FPS (1536 SPF)
    Compression mode            : Lossy
    Stream size                 : 124 MiB (6%)
    Title                       : Inglés / AC3 [CinemaniaHDD]
    Language                    : English
    Service kind                : Complete Main
    Default                     : No
    Forced                      : No

    Text #1
    ID                          : 5
    Format                      : UTF-8
    Codec ID                    : S_TEXT/UTF8
    Codec ID/Info               : UTF-8 Plain Text
    Duration                    : 18 min 52 s
    Bit rate                    : 0 b/s
    Count of elements           : 3
    Stream size                 : 60.0 Bytes (0%)
    Title                       : Forzados [CinemaniaHDD]
    Language                    : Spanish
    Default                     : Yes
    Forced                      : Yes

    Text #2
    ID                          : 6
    Format                      : UTF-8
    Codec ID                    : S_TEXT/UTF8
    Codec ID/Info               : UTF-8 Plain Text
    Duration                    : 25 min 59 s
    Bit rate                    : 65 b/s
    Count of elements           : 347
    Stream size                 : 12.5 KiB (0%)
    Title                       : Español latino [CinemaniaHDD]
    Language                    : Spanish
    Default                     : No
    Forced                      : No

    Menu
    00:00:00.000                : Amazon Original
    00:00:04.000                : Scene 2
    00:01:03.000                : Scene 3
    00:02:04.000                : Scene 4
    00:03:50.000                : Title Sequence
    00:03:55.000                : Scene 6
    00:06:24.000                : Scene 7
    00:08:19.000                : Scene 8
    00:11:58.000                : Scene 9
    00:15:33.000                : Scene 10
    00:18:53.000                : Scene 11
    00:22:29.000                : Scene 12
    00:25:20.000                : End Credits

     

  • Peso: 2.12 GiB C/U --- 12 CAPITULOS DISPONIBLES

Sinopsis

Son un hatajo de pendencieros inadaptados reconvertidos en mercenarios. A Vox Machina le interesa más el dinero fácil y la cerveza barata que proteger el reino. Pero cuando este se ve amenazado por algo maligno, esta bulliciosa panda se da cuenta de que nadie más puede restablecer la justicia. Lo que empezó como un día de pago más es ahora la historia del origen de los nuevos héroes de Exandria.

12 CAPITULOS AGREGADOS

Ficha técnica

Video trailer de la película

Enlaces de descarga

Rip de Bluray

Descargar The Legend of Vox Machina (2022) Temporada 1 AMZN WEB-DL 1080p Latino




Aportes de DPeliculasHDmega la pass es:dpeliculashdmega.org Aportes de CinemaniaHD la pass es:cinemaniahdd.com

Películas relacionadas

  • Willow (2022) Temporada 1 WEB-DL 1080p Latino

    Willow (2022) Temporada 1 WEB-DL 1080p Latino

    2022
    Willow (2022) Temporada 1 WEB-DL 1080p Latino

    0h 0m 2022

    Descargar Willow (2022) Temporada 1 WEB-DL 1080p Latino. Veinte años después de vencer a la reina Bavmorda,...

    Género: Action & Adventure

    Actores: Warwick Davis

  • Quantum Leap (2022) Temporada 1 WEB-DL 1080p Latino

    Quantum Leap (2022) Temporada 1 WEB-DL 1080p Latino

    2022
    Quantum Leap (2022) Temporada 1 WEB-DL 1080p Latino

    0h 43m 2022

    Han pasado 27 años desde que el Dr. Sam Beckett pisó el acelerador Quantum Leap y desapareció. Ahora...

    Director: Donald P. Bellisario

    Género: Drama

    Actores: Raymond Lee

  • Shrek 2 (2004) REMUX 4K HDR Latino – CMHDD

    Shrek 2 (2004) REMUX 4K HDR Latino – CMHDD

    2004
    Shrek 2 (2004) REMUX 4K HDR Latino – CMHDD

    1h 32m 2004

    Cuando Shrek y la princesa Fiona regresan de su luna de miel, los padres de ella los invitan a visitar...

    Director: Matt Aspbury

    Género: Animación

    Actores: Wendy Bilanski

  • Rick and Morty (2022) Temporada 6 WEB-DL 1080p Latino

    Rick and Morty (2022) Temporada 6 WEB-DL 1080p Latino

    2013
    Rick and Morty (2022) Temporada 6 WEB-DL 1080p Latino

    0h 22m 2013

    Comedia animada que narra las aventuras de un científico loco Rick Sánchez, que regresa después de...

    Director: Justin Roiland

    Género: Action & Adventure

    Actores: Spencer Grammer

descargar The Legend of Vox Machina (2022) Temporada 1 AMZN WEB-DL 1080p Latino 1080p 1080p gratis, The Legend of Vox Machina (2022) Temporada 1 AMZN WEB-DL 1080p Latino 1080p mega 1 link, The Legend of Vox Machina (2022) Temporada 1 AMZN WEB-DL 1080p Latino 1080p serie completa, descargar The Legend of Vox Machina (2022) Temporada 1 AMZN WEB-DL 1080p Latino 1080p gratis en mega.

The Legend of Vox Machina (2022) Temporada 1 AMZN WEB-DL 1080p Latino pelicula full hd, The Legend of Vox Machina (2022) Temporada 1 AMZN WEB-DL 1080p Latino mega latino, The Legend of Vox Machina (2022) Temporada 1 AMZN WEB-DL 1080p Latino 4k latino, The Legend of Vox Machina (2022) Temporada 1 AMZN WEB-DL 1080p Latino pelicula completa, The Legend of Vox Machina (2022) Temporada 1 AMZN WEB-DL 1080p Latino descargar gratis, descargar The Legend of Vox Machina (2022) Temporada 1 AMZN WEB-DL 1080p Latino pelicula latino, The Legend of Vox Machina (2022) Temporada 1 AMZN WEB-DL 1080p Latino 1 link mega, The Legend of Vox Machina (2022) Temporada 1 AMZN WEB-DL 1080p Latino 1 link google drive, The Legend of Vox Machina (2022) Temporada 1 AMZN WEB-DL 1080p Latino hd 1080p latino.
Comentarios 0