The Legend of Drunken Master (1994) REMUX 1080p Latino – CMHDD

26 vistas
1 estrella2 estrellas3 estrellas4 estrellas5 estrellas (1 votos, promedio: 5,00 de 5)
Cargando...

Información de The Legend of Drunken Master (1994) REMUX 1080p Latino – CMHDD

Datos de la película

  • Calidad: Full 1080p
  • Audio: Español Latino AC3 2.0 BLURAY - Ingles DTS 5.1 BLURAY
  • Subtitulos: Español Latino PGS
  • Resolución: 1920x1080p
  • Formato: MKV
  • Codec: H.264
  • Encoder: Dracarys
  • Mediainfo: Clic para Mostrar Datos Ver
  • Format                      : Matroska
    Format version              : Version 4
    File size                   : 19.2 GiB
    Duration                    : 1 h 42 min
    Overall bit rate mode       : Variable
    Overall bit rate            : 26.8 Mb/s
    Movie name                  : The Legend of Drunken Master (1994) REMUX 1080p Latino - CMHDD
    Encoded date                : UTC 2021-09-15 01:40:24
    Writing application         : mkvmerge v17.0.0 ('Be Ur Friend') 64-bit
    Writing library             : libebml v1.3.5 + libmatroska v1.4.8

    Video
    ID                          : 1
    Format                      : VC-1
    Format profile              : Advanced@L3
    Codec ID                    : V_MS/VFW/FOURCC / WVC1
    Codec ID/Hint               : Microsoft
    Duration                    : 1 h 42 min
    Bit rate                    : 22.1 Mb/s
    Width                       : 1 920 pixels
    Height                      : 1 080 pixels
    Display aspect ratio        : 16:9
    Frame rate mode             : Constant
    Frame rate                  : 23.976 (24000/1001) FPS
    Color space                 : YUV
    Chroma subsampling          : 4:2:0
    Bit depth                   : 8 bits
    Scan type                   : Progressive
    Compression mode            : Lossy
    Bits/(Pixel*Frame)          : 0.444
    Stream size                 : 15.8 GiB (82%)
    Default                     : Yes
    Forced                      : No

    Audio #1
    ID                          : 2
    Format                      : DTS XLL
    Format/Info                 : Digital Theater Systems
    Commercial name             : DTS-HD Master Audio
    Codec ID                    : A_DTS
    Duration                    : 1 h 42 min
    Bit rate mode               : Variable
    Bit rate                    : 4 401 kb/s
    Channel(s)                  : 6 channels
    Channel layout              : C L R Ls Rs LFE
    Sampling rate               : 48.0 kHz
    Frame rate                  : 93.750 FPS (512 SPF)
    Bit depth                   : 24 bits
    Compression mode            : Lossless
    Stream size                 : 3.15 GiB (16%)
    Language                    : English
    Default                     : No
    Forced                      : No

    Audio #2
    ID                          : 3
    Format                      : AC-3
    Format/Info                 : Audio Coding 3
    Commercial name             : Dolby Digital
    Format settings             : Dolby Surround
    Codec ID                    : A_AC3
    Duration                    : 1 h 42 min
    Bit rate mode               : Constant
    Bit rate                    : 320 kb/s
    Channel(s)                  : 2 channels
    Channel layout              : L R
    Sampling rate               : 48.0 kHz
    Frame rate                  : 31.250 FPS (1536 SPF)
    Compression mode            : Lossy
    Stream size                 : 235 MiB (1%)
    Language                    : Spanish
    Service kind                : Complete Main
    Default                     : Yes
    Forced                      : No

    Text
    ID                          : 4
    Format                      : PGS
    Muxing mode                 : zlib
    Codec ID                    : S_HDMV/PGS
    Codec ID/Info               : Picture based subtitle format used on BDs/HD-DVDs
    Duration                    : 1 h 38 min
    Bit rate                    : 31.2 kb/s
    Count of elements           : 2980
    Stream size                 : 22.0 MiB (0%)
    Language                    : Spanish
    Default                     : No
    Forced                      : No

    Menu
    00:00:00.000                : en:Chapter 1
    00:05:54.270                : en:Chapter 2
    00:14:38.794                : en:Chapter 3
    00:17:31.300                : en:Chapter 4
    00:25:21.228                : en:Chapter 5
    00:28:59.279                : en:Chapter 6
    00:33:53.865                : en:Chapter 7
    00:46:09.892                : en:Chapter 8
    00:54:18.838                : en:Chapter 9
    00:58:44.562                : en:Chapter 10
    01:01:06.913                : en:Chapter 11
    01:11:13.143                : en:Chapter 12
    01:17:15.672                : en:Chapter 13
    01:20:10.847                : en:Chapter 14
    01:38:52.718                : en:Chapter 15
    01:39:40.391                : en:Chapter 16

  • Peso: 19.2 GiB

Sinopsis

Cuando el gobierno británico es descubierto traficando con obras de arte chinas fuera del país, el héroe Wong Fei Hung (Chan) utiliza sus extravagantes artes marciales para luchar contra los conspiradores y salvar las obras, antes de que sea demasiado tarde. Cuanto más bebe Hung, más ágil se vuelve, siendo capaz de defenderse de numerosos ataques, con increíbles movimientos. Hung consigue, de esta manera, afrontar todo tipo de desafíos.

Ficha técnica

  • Titulo original: 醉拳二
  • Fecha de lanzamiento: 03-02-1994 (Hong Kong)
  • Director: Liu Chia-Liang
  • Género: Acción, Comedia
  • Puntuación: 5.0 1 votos
  • Duración:
    1h 42m

Video trailer de la película

Enlaces de descarga

Rip de Bluray

Descargar The Legend of Drunken Master (1994) REMUX 1080p Latino – CMHDD


Aportes de DPeliculasHDmega la pass es:dpeliculashdmega.org Aportes de CinemaniaHD la pass es:cinemaniahdd.com
Guardado en : Acción , Comedia

Películas relacionadas

The Legend of Drunken Master (1994) REMUX 1080p Latino – CMHDD pelicula full hd, The Legend of Drunken Master (1994) REMUX 1080p Latino – CMHDD mega latino, The Legend of Drunken Master (1994) REMUX 1080p Latino – CMHDD 4k latino, The Legend of Drunken Master (1994) REMUX 1080p Latino – CMHDD pelicula completa, The Legend of Drunken Master (1994) REMUX 1080p Latino – CMHDD descargar gratis, descargar The Legend of Drunken Master (1994) REMUX 1080p Latino – CMHDD pelicula latino, The Legend of Drunken Master (1994) REMUX 1080p Latino – CMHDD 1 link mega, The Legend of Drunken Master (1994) REMUX 1080p Latino – CMHDD 1 link google drive, The Legend of Drunken Master (1994) REMUX 1080p Latino – CMHDD hd 1080p latino.