×

¿Problemas para descargar con Mozilla, EDGE? Deshabilita la opción "Abrir vinculos en una pestaña nueva" tal como lo muestra ésta imagen.

The Leftovers (2016) Temporada 3 1080p Latino

871 vistas

Información de The Leftovers (2016) Temporada 3 1080p Latino

Datos de la película

  • Calidad: 1080p
  • Audio: Español Latino AC3 2.0 BLURAY - Ingles AC3 5.1 BLURAY
  • Subtitulos: Español Latino SRT- FORZADOS SRT
  • Resolución: 1920x1080
  • Formato: MKV
  • Codec: H.264
  • Encoder: cinemaniahdd
  • Mediainfo: Clic para Mostrar Datos Ver
  • The Leftovers T03E01 1080p Latino.mkv
    Format                      : Matroska
    Format version              : Version 4
    File size                   : 6.28 GiB
    Duration                    : 1 h 0 min
    Overall bit rate            : 14.9 Mb/s
    Movie name                  : The Leftovers T03E01 - CinemaniaHDD.Net
    Encoded date                : UTC 2020-03-08 22:48:35
    Writing application         : mkvmerge v42.0.0 ('Overtime') 64-bit
    Writing library             : libebml v1.3.10 + libmatroska v1.5.2

    Video
    ID                          : 1
    Format                      : AVC
    Format/Info                 : Advanced Video Codec
    Format profile              : High@L4.1
    Format settings             : CABAC / 4 Ref Frames
    Format settings, CABAC      : Yes
    Format settings, ReFrames   : 4 frames
    Codec ID                    : V_MPEG4/ISO/AVC
    Duration                    : 1 h 0 min
    Bit rate                    : 14.0 Mb/s
    Width                       : 1 920 pixels
    Height                      : 1 080 pixels
    Display aspect ratio        : 16:9
    Frame rate mode             : Constant
    Frame rate                  : 23.976 (24000/1001) FPS
    Color space                 : YUV
    Chroma subsampling          : 4:2:0
    Bit depth                   : 8 bits
    Scan type                   : Progressive
    Bits/(Pixel*Frame)          : 0.282
    Stream size                 : 5.90 GiB (94%)
    Title                       : CinemaniaHDD
    Writing library             : x264 core 152 r2851 ba24899
    Encoding settings           : cabac=1 / ref=4 / deblock=1:-3:-3 / analyse=0x3:0x133 / me=umh / subme=10 / psy=1 / psy_rd=1.00:0.00 / mixed_ref=1 / me_range=24 / chroma_me=1 / trellis=2 / 8x8dct=1 / cqm=0 / deadzone=21,11 / fast_pskip=1 / chroma_qp_offset=-2 / threads=6 / lookahead_threads=1 / sliced_threads=0 / nr=0 / decimate=1 / interlaced=0 / bluray_compat=0 / constrained_intra=0 / bframes=8 / b_pyramid=2 / b_adapt=2 / b_bias=0 / direct=3 / weightb=1 / open_gop=0 / weightp=2 / keyint=250 / keyint_min=25 / scenecut=40 / intra_refresh=0 / rc_lookahead=60 / rc=2pass / mbtree=0 / bitrate=14000 / ratetol=1.0 / qcomp=0.60 / qpmin=0 / qpmax=69 / qpstep=4 / cplxblur=20.0 / qblur=0.5 / vbv_maxrate=62500 / vbv_bufsize=78125 / nal_hrd=none / filler=0 / ip_ratio=1.40 / pb_ratio=1.30 / aq=1:0.80
    Default                     : Yes
    Forced                      : No

    Audio #1
    ID                          : 2
    Format                      : AC-3
    Format/Info                 : Audio Coding 3
    Commercial name             : Dolby Digital
    Codec ID                    : A_AC3
    Duration                    : 1 h 0 min
    Bit rate mode               : Constant
    Bit rate                    : 256 kb/s
    Channel(s)                  : 2 channels
    Channel layout              : L R
    Sampling rate               : 48.0 kHz
    Frame rate                  : 31.250 FPS (1536 SPF)
    Bit depth                   : 16 bits
    Compression mode            : Lossy
    Stream size                 : 111 MiB (2%)
    Title                       : Español latino [CinemaniaHDD]
    Language                    : Spanish
    Service kind                : Complete Main
    Default                     : Yes
    Forced                      : No

    Audio #2
    ID                          : 3
    Format                      : AC-3
    Format/Info                 : Audio Coding 3
    Commercial name             : Dolby Digital
    Codec ID                    : A_AC3
    Duration                    : 1 h 0 min
    Bit rate mode               : Constant
    Bit rate                    : 640 kb/s
    Channel(s)                  : 6 channels
    Channel layout              : L R C LFE Ls Rs
    Sampling rate               : 48.0 kHz
    Frame rate                  : 31.250 FPS (1536 SPF)
    Bit depth                   : 16 bits
    Compression mode            : Lossy
    Stream size                 : 276 MiB (4%)
    Title                       : Inglés [CinemaniaHDD]
    Language                    : English
    Service kind                : Complete Main
    Default                     : No
    Forced                      : No

    Text #1
    ID                          : 4
    Format                      : UTF-8
    Codec ID                    : S_TEXT/UTF8
    Codec ID/Info               : UTF-8 Plain Text
    Duration                    : 54 min 39 s
    Bit rate                    : 0 b/s
    Count of elements           : 13
    Stream size                 : 232 Bytes (0%)
    Title                       : Forzados [CinemaniaHDD]
    Language                    : Spanish
    Default                     : Yes
    Forced                      : Yes

    Text #2
    ID                          : 5
    Format                      : UTF-8
    Codec ID                    : S_TEXT/UTF8
    Codec ID/Info               : UTF-8 Plain Text
    Duration                    : 58 min 4 s
    Bit rate                    : 41 b/s
    Count of elements           : 576
    Stream size                 : 17.7 KiB (0%)
    Title                       : Español latino [CinemaniaHDD]
    Language                    : Spanish
    Default                     : No
    Forced                      : No

    Text #3
    ID                          : 6
    Format                      : UTF-8
    Codec ID                    : S_TEXT/UTF8
    Codec ID/Info               : UTF-8 Plain Text
    Duration                    : 58 min 3 s
    Bit rate                    : 50 b/s
    Count of elements           : 641
    Stream size                 : 21.4 KiB (0%)
    Title                       : Inglés [CinemaniaHDD]
    Language                    : English
    Default                     : No
    Forced                      : No

    Menu
    00:00:00.000                : en:Chapter 01
    00:00:08.008                : en:Chapter 02
    00:10:10.652                : en:Chapter 03
    00:19:44.183                : en:Chapter 04
    00:29:10.999                : en:Chapter 05
    00:40:03.067                : en:Chapter 06
    00:49:41.729                : en:Chapter 07
    00:58:45.147                : en:Chapter 08

     

  • Peso: 6.28 GiB C/U

Sinopsis

En esta tercera y última temporada, las familias Garvey y Murphy se juntan mientras buscan desesperadamente una explicación para aquello que desafía toda creencia.

Ficha técnica

Video trailer de la película

Enlaces de descarga

Rip de Bluray

Descargar The Leftovers (2016) Temporada 3 1080p Latino




Aportes de DPeliculasHDmega la pass es:dpeliculashdmega.org Aportes de CinemaniaHD la pass es:cinemaniahdd.com
Guardado en : Drama , HBO , Sci-Fi & Fantasy , Series

Películas relacionadas

descargar The Leftovers (2016) Temporada 3 1080p Latino 1080p 1080p gratis, The Leftovers (2016) Temporada 3 1080p Latino 1080p mega 1 link, The Leftovers (2016) Temporada 3 1080p Latino 1080p serie completa, descargar The Leftovers (2016) Temporada 3 1080p Latino 1080p gratis en mega.

The Leftovers (2016) Temporada 3 1080p Latino pelicula full hd, The Leftovers (2016) Temporada 3 1080p Latino mega latino, The Leftovers (2016) Temporada 3 1080p Latino 4k latino, The Leftovers (2016) Temporada 3 1080p Latino pelicula completa, The Leftovers (2016) Temporada 3 1080p Latino descargar gratis, descargar The Leftovers (2016) Temporada 3 1080p Latino pelicula latino, The Leftovers (2016) Temporada 3 1080p Latino 1 link mega, The Leftovers (2016) Temporada 3 1080p Latino 1 link google drive, The Leftovers (2016) Temporada 3 1080p Latino hd 1080p latino.
Comentarios 0