×

¿Problemas para descargar con Mozilla, EDGE? Deshabilita la opción "Abrir vinculos en una pestaña nueva" tal como lo muestra ésta imagen.

The Leftovers (2015) Temporada 2 1080p Latino

1.191 vistas

Información de The Leftovers (2015) Temporada 2 1080p Latino

Datos de la película

  • Calidad: 1080p
  • Audio: Español Latino AC3 2.0 BLURAY - Ingles DTS 5.1 BLURAY
  • Subtitulos: Español Latino SRT- FORZADOS SRT
  • Resolución: 1920x1080
  • Formato: MKV
  • Codec: H.264
  • Encoder: cinemaniahdd
  • Mediainfo: Clic para Mostrar Datos Ver
  • The Leftovers T02E01 1080p Latino.mkv
    Format                      : Matroska
    Format version              : Version 4
    File size                   : 5.29 GiB
    Duration                    : 1 h 1 min
    Overall bit rate            : 12.2 Mb/s
    Movie name                  : The Leftovers T02E01 - CinemaniaHDD.Net
    Encoded date                : UTC 2020-03-04 01:24:18
    Writing application         : mkvmerge v42.0.0 ('Overtime') 64-bit
    Writing library             : libebml v1.3.10 + libmatroska v1.5.2

    Video
    ID                          : 1
    Format                      : AVC
    Format/Info                 : Advanced Video Codec
    Format profile              : High@L4.1
    Format settings             : CABAC / 4 Ref Frames
    Format settings, CABAC      : Yes
    Format settings, ReFrames   : 4 frames
    Codec ID                    : V_MPEG4/ISO/AVC
    Duration                    : 1 h 1 min
    Bit rate                    : 10.5 Mb/s
    Width                       : 1 920 pixels
    Height                      : 1 080 pixels
    Display aspect ratio        : 16:9
    Frame rate mode             : Constant
    Frame rate                  : 23.976 (24000/1001) FPS
    Color space                 : YUV
    Chroma subsampling          : 4:2:0
    Bit depth                   : 8 bits
    Scan type                   : Progressive
    Bits/(Pixel*Frame)          : 0.211
    Stream size                 : 4.52 GiB (86%)
    Title                       : CinemaniaHDD
    Writing library             : x264 core 148 r2699+6+41 29a38aa Yuuki [8-bit@4:2:0 X86_64][GCC 5.3.0]
    Encoding settings           : cabac=1 / ref=4 / deblock=1:-3:-3 / analyse=0x3:0x113 / me=umh / subme=11 / psy=1 / fade_compensate=0.00 / psy_rd=1.00:0.05 / mixed_ref=1 / me_range=32 / chroma_me=1 / trellis=2 / 8x8dct=1 / cqm=0 / deadzone=21,11 / fast_pskip=0 / chroma_qp_offset=-2 / threads=32 / lookahead_threads=5 / sliced_threads=0 / nr=0 / decimate=1 / interlaced=0 / bluray_compat=0 / constrained_intra=0 / fgo=0 / bframes=8 / b_pyramid=2 / b_adapt=2 / b_bias=0 / direct=3 / weightb=1 / open_gop=0 / weightp=2 / keyint=250 / keyint_min=23 / scenecut=40 / intra_refresh=0 / rc_lookahead=40 / rc=crf / mbtree=0 / crf=18.8000 / qcomp=0.60 / qpmin=0:0:0 / qpmax=69:69:69 / qpstep=4 / vbv_maxrate=50000 / vbv_bufsize=40000 / crf_max=0.0 / nal_hrd=none / filler=0 / ip_ratio=1.40 / pb_ratio=1.30 / aq=3:0.90
    Default                     : Yes
    Forced                      : No

    Audio #1
    ID                          : 2
    Format                      : AC-3
    Format/Info                 : Audio Coding 3
    Commercial name             : Dolby Digital
    Codec ID                    : A_AC3
    Duration                    : 1 h 1 min
    Bit rate mode               : Constant
    Bit rate                    : 256 kb/s
    Channel(s)                  : 2 channels
    Channel layout              : L R
    Sampling rate               : 48.0 kHz
    Frame rate                  : 31.250 FPS (1536 SPF)
    Bit depth                   : 16 bits
    Compression mode            : Lossy
    Stream size                 : 113 MiB (2%)
    Title                       : Español latino [CinemaniaHDD]
    Language                    : Spanish
    Service kind                : Complete Main
    Default                     : Yes
    Forced                      : No

    Audio #2
    ID                          : 3
    Format                      : DTS
    Format/Info                 : Digital Theater Systems
    Codec ID                    : A_DTS
    Duration                    : 1 h 1 min
    Bit rate mode               : Constant
    Bit rate                    : 1 509 kb/s
    Channel(s)                  : 6 channels
    Channel layout              : C L R Ls Rs LFE
    Sampling rate               : 48.0 kHz
    Frame rate                  : 93.750 FPS (512 SPF)
    Bit depth                   : 24 bits
    Compression mode            : Lossy
    Stream size                 : 668 MiB (12%)
    Title                       : Inglés [CinemaniaHDD]
    Language                    : English
    Default                     : No
    Forced                      : No

    Text #1
    ID                          : 4
    Format                      : UTF-8
    Codec ID                    : S_TEXT/UTF8
    Codec ID/Info               : UTF-8 Plain Text
    Duration                    : 12 s 0 ms
    Bit rate                    : 10 b/s
    Count of elements           : 1
    Stream size                 : 16.0 Bytes (0%)
    Title                       : Forzados [CinemaniaHDD]
    Language                    : Spanish
    Default                     : Yes
    Forced                      : Yes

    Text #2
    ID                          : 5
    Format                      : UTF-8
    Codec ID                    : S_TEXT/UTF8
    Codec ID/Info               : UTF-8 Plain Text
    Duration                    : 49 min 39 s
    Bit rate                    : 35 b/s
    Count of elements           : 487
    Stream size                 : 12.8 KiB (0%)
    Title                       : Español latino [CinemaniaHDD]
    Language                    : Spanish
    Default                     : No
    Forced                      : No

    Menu
    00:00:00.000                : en:00:00:00.000
    00:01:32.884                : en:00:01:32.884
    00:14:30.745                : en:00:14:30.745
    00:26:36.553                : en:00:26:36.553
    00:38:27.013                : en:00:38:27.013
    00:49:30.301                : en:00:49:30.301
    01:00:46.726                : en:01:00:46.726

  • Peso: 5.29 GiB --- C/U

Sinopsis

La segunda temporada de esta serie de HBO Originals comienza cuatro años después de la inexplicable desaparición de millones de personas. Kevin Garvey, su novia Nora, su hija Jill y una niña abandonada, llegan al único pueblo en América donde nadie ha desaparecido, y allí esperan encontrar la paz. En Nueva York, Laurie y Tom ayudan al culto Guilty Remnant.

Ficha técnica

Video trailer de la película

Enlaces de descarga

Rip de Bluray

Descargar The Leftovers (2015) Temporada 2 1080p Latino




Aportes de DPeliculasHDmega la pass es:dpeliculashdmega.org Aportes de CinemaniaHD la pass es:cinemaniahdd.com
Guardado en : Drama , HBO , Sci-Fi & Fantasy , Series

Películas relacionadas

descargar The Leftovers (2015) Temporada 2 1080p Latino 1080p 1080p gratis, The Leftovers (2015) Temporada 2 1080p Latino 1080p mega 1 link, The Leftovers (2015) Temporada 2 1080p Latino 1080p serie completa, descargar The Leftovers (2015) Temporada 2 1080p Latino 1080p gratis en mega.

The Leftovers (2015) Temporada 2 1080p Latino pelicula full hd, The Leftovers (2015) Temporada 2 1080p Latino mega latino, The Leftovers (2015) Temporada 2 1080p Latino 4k latino, The Leftovers (2015) Temporada 2 1080p Latino pelicula completa, The Leftovers (2015) Temporada 2 1080p Latino descargar gratis, descargar The Leftovers (2015) Temporada 2 1080p Latino pelicula latino, The Leftovers (2015) Temporada 2 1080p Latino 1 link mega, The Leftovers (2015) Temporada 2 1080p Latino 1 link google drive, The Leftovers (2015) Temporada 2 1080p Latino hd 1080p latino.
Comentarios 1
  • Emiliano Zúñiga - 31 marzo, 2021

    Excelente aporte, muchas gracias sigan así.
    PD: Sólo funcionan los links de One Drive