×

¿Problemas para descargar con Mozilla, EDGE? Deshabilita la opción "Abrir vinculos en una pestaña nueva" tal como lo muestra ésta imagen.

The Leftovers (2014) Temporada 1 1080p Latino

2.242 vistas

Información de The Leftovers (2014) Temporada 1 1080p Latino

Datos de la película

  • Calidad: 1080p
  • Audio: Español Latino AC3 2.0 BLURAY - Ingles DTS 5.1 BLURAY
  • Subtitulos: Español Latino SRT- FORZADOS SRT
  • Resolución: 1920x1080
  • Formato: MKV
  • Codec: H.264
  • Encoder: cinemaniahdd
  • Mediainfo: Clic para Mostrar Datos Ver
  • The Leftovers T01E01 1080p Latino.mkv
    Format                      : Matroska
    Format version              : Version 4
    File size                   : 5.59 GiB
    Duration                    : 1 h 11 min
    Overall bit rate            : 11.2 Mb/s
    Movie name                  : The Leftovers T01E01 - CinemaniaHDD.Net
    Encoded date                : UTC 2019-10-24 00:09:19
    Writing application         : mkvmerge v38.0.0 ('The Silent Type') 64-bit
    Writing library             : libebml v1.3.9 + libmatroska v1.5.2

    Video
    ID                          : 1
    Format                      : AVC
    Format/Info                 : Advanced Video Codec
    Format profile              : High@L4.1
    Format settings             : CABAC / 4 Ref Frames
    Format settings, CABAC      : Yes
    Format settings, ReFrames   : 4 frames
    Codec ID                    : V_MPEG4/ISO/AVC
    Duration                    : 1 h 11 min
    Bit rate                    : 9 413 kb/s
    Width                       : 1 920 pixels
    Height                      : 1 080 pixels
    Display aspect ratio        : 16:9
    Frame rate mode             : Constant
    Frame rate                  : 23.976 (24000/1001) FPS
    Color space                 : YUV
    Chroma subsampling          : 4:2:0
    Bit depth                   : 8 bits
    Scan type                   : Progressive
    Bits/(Pixel*Frame)          : 0.189
    Stream size                 : 4.71 GiB (84%)
    Title                       : CinemaniaHDD
    Writing library             : x264 core 148 r2597 e86f3a1
    Encoding settings           : cabac=1 / ref=4 / deblock=1:-3:-3 / analyse=0x3:0x113 / me=umh / subme=8 / psy=1 / psy_rd=1.00:0.00 / mixed_ref=1 / me_range=16 / chroma_me=1 / trellis=1 / 8x8dct=1 / cqm=0 / deadzone=21,11 / fast_pskip=1 / chroma_qp_offset=-2 / threads=12 / lookahead_threads=2 / sliced_threads=0 / nr=0 / decimate=1 / interlaced=0 / bluray_compat=0 / constrained_intra=0 / bframes=3 / b_pyramid=2 / b_adapt=2 / b_bias=0 / direct=3 / weightb=1 / open_gop=0 / weightp=2 / keyint=240 / keyint_min=24 / scenecut=40 / intra_refresh=0 / rc_lookahead=50 / rc=2pass / mbtree=1 / bitrate=9413 / ratetol=1.0 / qcomp=0.60 / qpmin=0 / qpmax=69 / qpstep=4 / cplxblur=20.0 / qblur=0.5 / ip_ratio=1.40 / aq=1:1.00
    Language                    : English
    Default                     : Yes
    Forced                      : No

    Audio #1
    ID                          : 2
    Format                      : AC-3
    Format/Info                 : Audio Coding 3
    Commercial name             : Dolby Digital
    Codec ID                    : A_AC3
    Duration                    : 1 h 11 min
    Bit rate mode               : Constant
    Bit rate                    : 256 kb/s
    Channel(s)                  : 2 channels
    Channel layout              : L R
    Sampling rate               : 48.0 kHz
    Frame rate                  : 31.250 FPS (1536 SPF)
    Bit depth                   : 16 bits
    Compression mode            : Lossy
    Stream size                 : 131 MiB (2%)
    Title                       : Español latino [CinemaniaHDD]
    Language                    : Spanish
    Service kind                : Complete Main
    Default                     : Yes
    Forced                      : No

    Audio #2
    ID                          : 3
    Format                      : DTS
    Format/Info                 : Digital Theater Systems
    Codec ID                    : A_DTS
    Duration                    : 1 h 11 min
    Bit rate mode               : Constant
    Bit rate                    : 1 509 kb/s
    Channel(s)                  : 6 channels
    Channel layout              : C L R Ls Rs LFE
    Sampling rate               : 48.0 kHz
    Frame rate                  : 93.750 FPS (512 SPF)
    Bit depth                   : 24 bits
    Compression mode            : Lossy
    Stream size                 : 773 MiB (14%)
    Title                       : Inglés [CinemaniaHDD]
    Language                    : English
    Default                     : No
    Forced                      : No

    Text #1
    ID                          : 4
    Format                      : UTF-8
    Codec ID                    : S_TEXT/UTF8
    Codec ID/Info               : UTF-8 Plain Text
    Duration                    : 1 h 2 min
    Bit rate                    : 0 b/s
    Count of elements           : 24
    Stream size                 : 425 Bytes (0%)
    Title                       : Forzados [CinemaniaHDD]
    Language                    : Spanish
    Default                     : Yes
    Forced                      : Yes

    Text #2
    ID                          : 5
    Format                      : UTF-8
    Codec ID                    : S_TEXT/UTF8
    Codec ID/Info               : UTF-8 Plain Text
    Duration                    : 1 h 9 min
    Bit rate                    : 35 b/s
    Count of elements           : 748
    Stream size                 : 18.2 KiB (0%)
    Title                       : Español latino [CinemaniaHDD]
    Language                    : Spanish
    Default                     : No
    Forced                      : No

    Text #3
    ID                          : 6
    Format                      : UTF-8
    Codec ID                    : S_TEXT/UTF8
    Codec ID/Info               : UTF-8 Plain Text
    Duration                    : 1 h 11 min
    Bit rate                    : 50 b/s
    Count of elements           : 807
    Stream size                 : 26.3 KiB (0%)
    Title                       : Inglés [CinemaniaHDD]
    Language                    : English
    Default                     : No
    Forced                      : No

    Menu
    00:00:00.000                : en:00:00:00.000
    00:09:28.443                : en:00:09:28.443
    00:19:25.873                : en:00:19:25.873
    00:32:24.860                : en:00:32:24.860
    00:39:09.264                : en:00:39:09.264
    00:50:34.114                : en:00:50:34.114
    01:00:21.952                : en:01:00:21.952
    01:10:01.406                : en:01:10:01.406

     

  • Peso: 5.59 GiB C/U

Sinopsis

Los residentes de una pequeña ciudad todavía buscan respuestas a los acontecimientos que tuvieron lugar hace tres años, cuando la población supuestamente víctima del episodio bíblico del rapto. La primera temporada de la serie se ha centrado en el jefe de policía local, Kevin Garvey, quien debe gestionar las diferentes reacciones de los miembros de esa comunidad en Utah

Ficha técnica

Video trailer de la película

Enlaces de descarga

Rip de Bluray

Descargar The Leftovers (2014) Temporada 1 1080p Latino




Aportes de DPeliculasHDmega la pass es:dpeliculashdmega.org Aportes de CinemaniaHD la pass es:cinemaniahdd.com
Guardado en : Drama , HBO , HD 1080p , Sci-Fi & Fantasy , Series

Películas relacionadas

  • Noche sin paz (2022) HD 1080p Latino

    Noche sin paz (2022) HD 1080p Latino

    2022
    Noche sin paz (2022) HD 1080p Latino

    1h 41m 2022

    Descargar Noche sin paz (2022) HD 1080p Latino. Cuando un equipo de mercenarios irrumpe en Nochebuena...

    Director: Tyshana Hobson

    Género: Acción

    Actores: Yoon Cha-Lee

  • Narvik (2022) NF WEB-DL 1080p Latino

    Narvik (2022) NF WEB-DL 1080p Latino

    2022
    Narvik (2022) NF WEB-DL 1080p Latino

    1h 48m 2022

    Descargar Narvik (2022) NF WEB-DL 1080p Latino. Abril de 1940. Los ojos del mundo están puestos en Narvik,...

    Director: Suzanne Svae-Johansen

    Género: Acción

    Actores: Torfinn Nag

descargar The Leftovers (2014) Temporada 1 1080p Latino 1080p 1080p gratis, The Leftovers (2014) Temporada 1 1080p Latino 1080p mega 1 link, The Leftovers (2014) Temporada 1 1080p Latino 1080p serie completa, descargar The Leftovers (2014) Temporada 1 1080p Latino 1080p gratis en mega.

The Leftovers (2014) Temporada 1 1080p Latino pelicula full hd, The Leftovers (2014) Temporada 1 1080p Latino mega latino, The Leftovers (2014) Temporada 1 1080p Latino 4k latino, The Leftovers (2014) Temporada 1 1080p Latino pelicula completa, The Leftovers (2014) Temporada 1 1080p Latino descargar gratis, descargar The Leftovers (2014) Temporada 1 1080p Latino pelicula latino, The Leftovers (2014) Temporada 1 1080p Latino 1 link mega, The Leftovers (2014) Temporada 1 1080p Latino 1 link google drive, The Leftovers (2014) Temporada 1 1080p Latino hd 1080p latino.
Comentarios 2
  • gisella - 25 diciembre, 2019

    hola me encanta esta serie the loftlovers, podrian subir las temporadas que faltan.
    gracias

  • oscar - 22 diciembre, 2019

    hola que tal,
    me encanto la primera temporada en excelente calidad video, me gustaria que subieras las otras 2 temporadas.
    te agradeceria. excelente pagina.