×

¿Problemas para descargar con Mozilla, EDGE? Deshabilita la opción "Abrir vinculos en una pestaña nueva" tal como lo muestra ésta imagen.

La Liga Extraordinaria (2003) REMUX 1080p Latino

187 vistas

Información de La Liga Extraordinaria (2003) REMUX 1080p Latino

Datos de la película

  • Calidad: Full 1080p
  • Audio: Español Latino AC3 5.1 BLURAY - Ingles DTS 5.1 BLURAY
  • Subtitulos: Español Latino PGS - Ingles PGS
  • Resolución: 1920x1080p
  • Formato: MKV
  • Codec: H.264
  • Encoder: CinefiloCool
  • Mediainfo: Clic para Mostrar Datos Ver
  • La Liga Extraordinaria (2003) REMUX 1080p Latino-CMHDD.mkv
    Format                      : Matroska
    Format version              : Version 4
    File size                   : 29.0 GiB
    Duration                    : 1 h 50 min
    Overall bit rate mode       : Variable
    Overall bit rate            : 37.6 Mb/s
    Movie name                  : The League Of Extraordinary Gentlemen (2003) CinemaniaHDD.Net
    Encoded date                : UTC 2021-10-15 07:21:04
    Writing application         : mkvmerge v56.1.0 ('My Friend') 64-bit
    Writing library             : libebml v1.4.2 + libmatroska v1.6.4
    Attachments                 : CINEMANIAHD.png

    Video
    ID                          : 1
    ID in the original source m : 4113 (0x1011)
    Format                      : AVC
    Format/Info                 : Advanced Video Codec
    Format profile              : High@L4.1
    Format settings             : CABAC / 4 Ref Frames
    Format settings, CABAC      : Yes
    Format settings, Reference  : 4 frames
    Codec ID                    : V_MPEG4/ISO/AVC
    Duration                    : 1 h 50 min
    Bit rate mode               : Variable
    Bit rate                    : 32.9 Mb/s
    Maximum bit rate            : 35.0 Mb/s
    Width                       : 1 920 pixels
    Height                      : 1 080 pixels
    Display aspect ratio        : 16:9
    Frame rate mode             : Constant
    Frame rate                  : 23.976 (24000/1001) FPS
    Color space                 : YUV
    Chroma subsampling          : 4:2:0
    Bit depth                   : 8 bits
    Scan type                   : Progressive
    Bits/(Pixel*Frame)          : 0.663
    Stream size                 : 25.3 GiB (88%)
    Title                       : REMUX HD1080p [CinemaniaHDD]
    Default                     : Yes
    Forced                      : Yes
    Color range                 : Limited
    Color primaries             : BT.709
    Transfer characteristics    : BT.709
    Matrix coefficients         : BT.709
    Original source medium      : Blu-ray

    Audio #1
    ID                          : 2
    ID in the original source m : 4354 (0x1102)
    Format                      : AC-3
    Format/Info                 : Audio Coding 3
    Commercial name             : Dolby Digital
    Codec ID                    : A_AC3
    Duration                    : 1 h 50 min
    Bit rate mode               : Constant
    Bit rate                    : 448 kb/s
    Channel(s)                  : 6 channels
    Channel layout              : L R C LFE Ls Rs
    Sampling rate               : 48.0 kHz
    Frame rate                  : 31.250 FPS (1536 SPF)
    Compression mode            : Lossy
    Stream size                 : 353 MiB (1%)
    Title                       : Español Latino [CinemaniaHDD]
    Language                    : Spanish
    Service kind                : Complete Main
    Default                     : Yes
    Forced                      : Yes
    Original source medium      : Blu-ray

    Audio #2
    ID                          : 3
    ID in the original source m : 4352 (0x1100)
    Format                      : DTS XLL
    Format/Info                 : Digital Theater Systems
    Commercial name             : DTS-HD Master Audio
    Codec ID                    : A_DTS
    Duration                    : 1 h 50 min
    Bit rate mode               : Variable
    Bit rate                    : 4 231 kb/s
    Channel(s)                  : 6 channels
    Channel layout              : C L R Ls Rs LFE
    Sampling rate               : 48.0 kHz
    Frame rate                  : 93.750 FPS (512 SPF)
    Bit depth                   : 24 bits
    Compression mode            : Lossless
    Stream size                 : 3.25 GiB (11%)
    Title                       : Ingles [CinemaniaHDD]
    Language                    : English
    Default                     : No
    Forced                      : No
    Original source medium      : Blu-ray

    Text #1
    ID                          : 4
    Format                      : PGS
    Muxing mode                 : zlib
    Codec ID                    : S_HDMV/PGS
    Codec ID/Info               : Picture based subtitle format used on BDs/HD-DVDs
    Duration                    : 1 h 46 min
    Bit rate                    : 144 b/s
    Count of elements           : 20
    Stream size                 : 113 KiB (0%)
    Title                       : Forzados-PGS [CinemaniaHDD]
    Language                    : Spanish
    Default                     : No
    Forced                      : No

    Text #2
    ID                          : 5
    ID in the original source m : 4610 (0x1202)
    Format                      : PGS
    Muxing mode                 : zlib
    Codec ID                    : S_HDMV/PGS
    Codec ID/Info               : Picture based subtitle format used on BDs/HD-DVDs
    Duration                    : 1 h 49 min
    Bit rate                    : 20.9 kb/s
    Count of elements           : 1758
    Stream size                 : 16.4 MiB (0%)
    Title                       : Español-PGS [CinemaniaHDD]
    Language                    : Spanish
    Default                     : No
    Forced                      : No
    Original source medium      : Blu-ray

    Text #3
    ID                          : 6
    ID in the original source m : 4608 (0x1200)
    Format                      : PGS
    Muxing mode                 : zlib
    Codec ID                    : S_HDMV/PGS
    Codec ID/Info               : Picture based subtitle format used on BDs/HD-DVDs
    Duration                    : 1 h 48 min
    Bit rate                    : 20.7 kb/s
    Count of elements           : 1704
    Stream size                 : 16.1 MiB (0%)
    Title                       : Ingles-PGS [CinemaniaHDD]
    Language                    : English
    Default                     : No
    Forced                      : No
    Original source medium      : Blu-ray

    Text #4
    ID                          : 7
    Format                      : UTF-8
    Codec ID                    : S_TEXT/UTF8
    Codec ID/Info               : UTF-8 Plain Text
    Duration                    : 51 min 52 s
    Bit rate                    : 1 b/s
    Count of elements           : 28
    Stream size                 : 755 Bytes (0%)
    Title                       : Forzados-SRT [CinemaniaHDD]
    Language                    : Spanish
    Default                     : Yes
    Forced                      : Yes

    Text #5
    ID                          : 8
    Format                      : UTF-8
    Codec ID                    : S_TEXT/UTF8
    Codec ID/Info               : UTF-8 Plain Text
    Duration                    : 1 h 41 min
    Bit rate                    : 40 b/s
    Count of elements           : 882
    Stream size                 : 30.0 KiB (0%)
    Title                       : Español-SRT [CinemaniaHDD]
    Language                    : Spanish
    Default                     : No
    Forced                      : No

    Menu
    00:00:00.000                : Chapter 01
    00:05:10.184                : Chapter 02
    00:09:11.676                : Chapter 03
    00:12:57.526                : Chapter 04
    00:20:45.118                : Chapter 05
    00:24:13.785                : Chapter 06
    00:28:46.266                : Chapter 07
    00:29:48.411                : Chapter 08
    00:33:06.818                : Chapter 09
    00:38:47.283                : Chapter 10
    00:40:54.118                : Chapter 11
    00:43:39.033                : Chapter 12
    00:47:56.290                : Chapter 13
    00:52:26.476                : Chapter 14
    01:01:14.212                : Chapter 15
    01:03:21.506                : Chapter 16
    01:06:00.790                : Chapter 17
    01:10:11.957                : Chapter 18
    01:12:56.080                : Chapter 19
    01:16:31.753                : Chapter 20
    01:18:44.177                : Chapter 21
    01:21:03.859                : Chapter 22
    01:26:51.873                : Chapter 23
    01:27:26.574                : Chapter 24
    01:29:19.354                : Chapter 25
    01:31:41.996                : Chapter 26
    01:33:46.162                : Chapter 27
    01:36:22.359                : Chapter 28
    01:38:01.876                : Chapter 29
    01:39:57.282                : Chapter 30
    01:42:10.624                : Chapter 31
    01:42:50.038                : Chapter 32

  • Peso: 29.0 GiB

Sinopsis

Descargar La liga extraordinaria (2003) REMUX 1080p Latino. En la Inglaterra victoriana, un malvado comete sus fechorías con la intención de provocar una guerra mundial. Intentando evitarlo, las autoridades reclutarán a un grupo de valientes con una peculiaridad: todos son héroes literarios. La extraordinaria Liga de Quatermain está compuesta por el capitán Nemo, la vampiresa de Drácula Mina Harker, el hombre invisible Rodney Skinner, el agente del servicio secreto americano Sawyer, Dorian Gray, y el Dr. Jekyll / Mr. Hyde. El enigmático M, es quien recluta a la Liga. Los miembros de la Liga son contumaces individualistas, forajidos de hecho, con pasados en los que hay luces y sombras y singulares dones que les han reportado alegrías y penalidades a la par. Ahora deben aprenden a confiar los unos en los otros y trabajar como equipo por el bien y la esperanza de la civilización, con poca preparación y ningún tiempo que perder.

Disponible Solo Para VIP!!! 🙂

Ficha técnica

Video trailer de la película

Enlaces de descarga

Rip de Bluray

Descargar La Liga Extraordinaria (2003) REMUX 1080p Latino


Aportes de DPeliculasHDmega la pass es:dpeliculashdmega.org Aportes de CinemaniaHD la pass es:cinemaniahdd.com

Películas relacionadas

  • Borrego: Sal Del Camino (2022) HD 1080p Latino

    Borrego: Sal Del Camino (2022) HD 1080p Latino

    2022
    Borrego: Sal Del Camino (2022) HD 1080p Latino

    1h 42m 2022

    Descargar Borrego: Sal Del Camino (2022) HD 1080p Latino. Una joven botánica se traslada a un pequeño...

    Director: Jesse Harris

    Género: Crimen

    Actores: Olivia Trujillo

  • Borrego: Sal Del Camino (2022) REMUX 1080p Latino

    Borrego: Sal Del Camino (2022) REMUX 1080p Latino

    2022
    Borrego: Sal Del Camino (2022) REMUX 1080p Latino

    1h 42m 2022

    Descargar Borrego: Sal Del Camino (2022) REMUX 1080p Latino. Una joven botánica se traslada a un pequeño...

    Director: Jesse Harris

    Género: Crimen

    Actores: Olivia Trujillo

  • Tren Bala (2022) WEB-DL 4K UHD HDR Latino

    Tren Bala (2022) WEB-DL 4K UHD HDR Latino

    2022
    Tren Bala (2022) WEB-DL 4K UHD HDR Latino

    2h 7m 2022

    Descargar Tren Bala (2022) WEB-DL 4K UHD HDR Latino. El desafortunado asesino "Catarina" está decidido...

    Director: Paul Barry

    Género: 4K HDR

    Actores: Zooey Miyoshi

  • Tren Bala (2022) AMZN WEB-DL 1080p Latino

    Tren Bala (2022) AMZN WEB-DL 1080p Latino

    2022
    Tren Bala (2022) AMZN WEB-DL 1080p Latino

    2h 7m 2022

    Descargar Tren Bala (2022) AMZN WEB-DL 1080p Latino. Cinco asesinos a sueldo se encuentran a bordo de...

    Director: Paul Barry

    Género: Acción

    Actores: Zooey Miyoshi

descargar La Liga Extraordinaria (2003) REMUX 1080p Latino Full 1080p 1080p gratis, La Liga Extraordinaria (2003) REMUX 1080p Latino Full 1080p mega 1 link, La Liga Extraordinaria (2003) REMUX 1080p Latino Full 1080p pelicula completa, descargar La Liga Extraordinaria (2003) REMUX 1080p Latino Full 1080p gratis en mega.

La Liga Extraordinaria (2003) REMUX 1080p Latino pelicula full hd, La Liga Extraordinaria (2003) REMUX 1080p Latino mega latino, La Liga Extraordinaria (2003) REMUX 1080p Latino 4k latino, La Liga Extraordinaria (2003) REMUX 1080p Latino pelicula completa, La Liga Extraordinaria (2003) REMUX 1080p Latino descargar gratis, descargar La Liga Extraordinaria (2003) REMUX 1080p Latino pelicula latino, La Liga Extraordinaria (2003) REMUX 1080p Latino 1 link mega, La Liga Extraordinaria (2003) REMUX 1080p Latino 1 link google drive, La Liga Extraordinaria (2003) REMUX 1080p Latino hd 1080p latino.
Comentarios 0