×

¿Problemas para descargar con Mozilla, EDGE? Deshabilita la opción "Abrir vinculos en una pestaña nueva" tal como lo muestra ésta imagen.

La Liga Extraordinaria (2003) Full HD 1080p Latino

1.353 vistas

Información de La Liga Extraordinaria (2003) Full HD 1080p Latino

Datos de la película

  • Calidad: Full 1080p
  • Audio: Español Latino AC3 5.1 BLURAY - Ingles DTS 5.1 BLURAY
  • Subtitulos: Español Latino PGS - Ingles PGS
  • Resolución: 1920x1080p
  • Formato: MKV
  • Codec: H.264
  • Encoder: CinefiloCool
  • Mediainfo: Clic para Mostrar Datos Ver
  • La Liga Extraordinaria (2003) Full HD 1080p Latino-CMHDD.mkv
    Format                      : Matroska
    Format version              : Version 4
    File size                   : 6.40 GiB
    Duration                    : 1 h 50 min
    Overall bit rate            : 8 314 kb/s
    Movie name                  : The League Of Extraordinary Gentlemen (2003) CinemaniaHDD.Net
    Encoded date                : UTC 2022-03-25 06:01:11
    Writing application         : mkvmerge v56.1.0 ('My Friend') 64-bit
    Writing library             : libebml v1.4.2 + libmatroska v1.6.4
    Attachments                 : CINEMANIAHD.png

    Video
    ID                          : 1
    Format                      : AVC
    Format/Info                 : Advanced Video Codec
    Format profile              : High@L4.1
    Format settings             : CABAC / 4 Ref Frames
    Format settings, CABAC      : Yes
    Format settings, Reference  : 4 frames
    Codec ID                    : V_MPEG4/ISO/AVC
    Duration                    : 1 h 50 min
    Bit rate                    : 6 336 kb/s
    Width                       : 1 920 pixels
    Height                      : 1 080 pixels
    Display aspect ratio        : 16:9
    Frame rate mode             : Constant
    Frame rate                  : 23.976 (24000/1001) FPS
    Color space                 : YUV
    Chroma subsampling          : 4:2:0
    Bit depth                   : 8 bits
    Scan type                   : Progressive
    Bits/(Pixel*Frame)          : 0.127
    Stream size                 : 4.87 GiB (76%)
    Title                       : Full HD1080p [CinemaniaHDD]
    Writing library             : x264 core 163 r3059 b684ebe0
    Encoding settings           : cabac=1 / ref=4 / deblock=1:0:0 / analyse=0x3:0x133 / me=tesa / subme=11 / psy=1 / psy_rd=1.00:0.00 / mixed_ref=1 / me_range=24 / chroma_me=1 / trellis=2 / 8x8dct=1 / cqm=0 / deadzone=21,11 / fast_pskip=0 / chroma_qp_offset=-2 / threads=24 / lookahead_threads=6 / sliced_threads=0 / nr=0 / decimate=1 / interlaced=0 / bluray_compat=0 / constrained_intra=0 / bframes=16 / b_pyramid=2 / b_adapt=2 / b_bias=0 / direct=3 / weightb=1 / open_gop=0 / weightp=2 / keyint=240 / keyint_min=24 / scenecut=40 / intra_refresh=0 / rc_lookahead=60 / rc=crf / mbtree=1 / crf=20.0 / qcomp=0.60 / qpmin=0 / qpmax=69 / qpstep=4 / vbv_maxrate=62500 / vbv_bufsize=78125 / crf_max=0.0 / nal_hrd=none / filler=0 / ip_ratio=1.40 / aq=1:1.00
    Default                     : Yes
    Forced                      : Yes
    Color range                 : Limited
    Color primaries             : BT.709
    Transfer characteristics    : BT.709
    Matrix coefficients         : BT.709

    Audio #1
    ID                          : 2
    ID in the original source m : 4354 (0x1102)
    Format                      : AC-3
    Format/Info                 : Audio Coding 3
    Commercial name             : Dolby Digital
    Codec ID                    : A_AC3
    Duration                    : 1 h 50 min
    Bit rate mode               : Constant
    Bit rate                    : 448 kb/s
    Channel(s)                  : 6 channels
    Channel layout              : L R C LFE Ls Rs
    Sampling rate               : 48.0 kHz
    Frame rate                  : 31.250 FPS (1536 SPF)
    Compression mode            : Lossy
    Stream size                 : 353 MiB (5%)
    Title                       : Español Latino [CinemaniaHDD]
    Language                    : Spanish
    Service kind                : Complete Main
    Default                     : Yes
    Forced                      : Yes
    Original source medium      : Blu-ray

    Audio #2
    ID                          : 3
    Format                      : DTS
    Format/Info                 : Digital Theater Systems
    Codec ID                    : A_DTS
    Duration                    : 1 h 50 min
    Bit rate mode               : Constant
    Bit rate                    : 1 509 kb/s
    Channel(s)                  : 6 channels
    Channel layout              : C L R Ls Rs LFE
    Sampling rate               : 48.0 kHz
    Frame rate                  : 93.750 FPS (512 SPF)
    Bit depth                   : 24 bits
    Compression mode            : Lossy
    Stream size                 : 1.16 GiB (18%)
    Title                       : Ingles [CinemaniaHDD]
    Language                    : English
    Default                     : No
    Forced                      : No

    Text #1
    ID                          : 4
    Format                      : PGS
    Muxing mode                 : zlib
    Codec ID                    : S_HDMV/PGS
    Codec ID/Info               : Picture based subtitle format used on BDs/HD-DVDs
    Duration                    : 1 h 46 min
    Bit rate                    : 144 b/s
    Count of elements           : 20
    Stream size                 : 113 KiB (0%)
    Title                       : Forzados-PGS [CinemaniaHDD]
    Language                    : Spanish
    Default                     : No
    Forced                      : No

    Text #2
    ID                          : 5
    ID in the original source m : 4610 (0x1202)
    Format                      : PGS
    Muxing mode                 : zlib
    Codec ID                    : S_HDMV/PGS
    Codec ID/Info               : Picture based subtitle format used on BDs/HD-DVDs
    Duration                    : 1 h 49 min
    Bit rate                    : 20.9 kb/s
    Count of elements           : 1758
    Stream size                 : 16.4 MiB (0%)
    Title                       : Español-PGS [CinemaniaHDD]
    Language                    : Spanish
    Default                     : No
    Forced                      : No
    Original source medium      : Blu-ray

    Text #3
    ID                          : 6
    ID in the original source m : 4608 (0x1200)
    Format                      : PGS
    Muxing mode                 : zlib
    Codec ID                    : S_HDMV/PGS
    Codec ID/Info               : Picture based subtitle format used on BDs/HD-DVDs
    Duration                    : 1 h 48 min
    Bit rate                    : 20.7 kb/s
    Count of elements           : 1704
    Stream size                 : 16.1 MiB (0%)
    Title                       : Ingles-PGS [CinemaniaHDD]
    Language                    : English
    Default                     : No
    Forced                      : No
    Original source medium      : Blu-ray

    Text #4
    ID                          : 7
    Format                      : UTF-8
    Codec ID                    : S_TEXT/UTF8
    Codec ID/Info               : UTF-8 Plain Text
    Duration                    : 51 min 52 s
    Bit rate                    : 1 b/s
    Count of elements           : 28
    Stream size                 : 755 Bytes (0%)
    Title                       : Forzados-SRT [CinemaniaHDD]
    Language                    : Spanish
    Default                     : Yes
    Forced                      : Yes

    Text #5
    ID                          : 8
    Format                      : UTF-8
    Codec ID                    : S_TEXT/UTF8
    Codec ID/Info               : UTF-8 Plain Text
    Duration                    : 1 h 41 min
    Bit rate                    : 40 b/s
    Count of elements           : 882
    Stream size                 : 30.0 KiB (0%)
    Title                       : Español-SRT [CinemaniaHDD]
    Language                    : Spanish
    Default                     : No
    Forced                      : No

    Menu
    00:00:00.000                : :On the Brink of War (Main Titles)
    00:05:08.182                : :Quatermain
    00:09:09.674                : :Armored Assassins
    00:12:55.523                : :The New League
    00:20:43.116                : :Mr. Dorian Gray
    00:24:11.782                : :The Fantom
    00:28:44.264                : :Mrs. Harker's Conduct
    00:29:46.409                : :The American Agent
    00:33:04.815                : :The Last Member
    00:38:45.281                : :Out of His League
    00:40:52.116                : :Voyage to Violence
    00:43:37.031                : :The Shooting Lesson
    00:47:54.288                : :The Portrait
    00:52:24.474                : :Death in Venice
    01:01:12.210                : :Behind the Mask
    01:03:19.503                : :Betrayed
    01:05:58.787                : :The Game Is Over
    01:10:09.955                : :Hyde the Hero
    01:12:54.077                : :The Message
    01:16:29.751                : :Waiting for Skinner
    01:18:42.175                : :A Fortress Vast
    01:21:01.856                : :The Game Is On
    01:26:49.871                : :The Napoleon of Crime
    01:27:24.572                : :A Woman's Wrath
    01:29:17.350                : :Invisible Enemy
    01:31:39.994                : :Meet Your Demon
    01:33:44.160                : :The Dante Beast
    01:36:20.357                : :Killing the Future
    01:37:59.872                : :The Long Shot
    01:39:55.280                : :A Hero's Bequest
    01:42:08.622                : :The Flame of Life
    01:42:48.036                : :Credits
    01:50:05.849                : :End

  • Peso: 6.40 GiB

Sinopsis

Descargar La Liga Extraordinaria (2003) Full HD 1080p Latino. En la Inglaterra victoriana, un malvado comete sus fechorías con la intención de provocar una guerra mundial. Intentando evitarlo, las autoridades reclutarán a un grupo de valientes con una peculiaridad: todos son héroes literarios. La extraordinaria Liga de Quatermain está compuesta por el capitán Nemo, la vampiresa de Drácula Mina Harker, el hombre invisible Rodney Skinner, el agente del servicio secreto americano Sawyer, Dorian Gray, y el Dr. Jekyll / Mr. Hyde. El enigmático M, es quien recluta a la Liga. Los miembros de la Liga son contumaces individualistas, forajidos de hecho, con pasados en los que hay luces y sombras y singulares dones que les han reportado alegrías y penalidades a la par. Ahora deben aprenden a confiar los unos en los otros y trabajar como equipo por el bien y la esperanza de la civilización, con poca preparación y ningún tiempo que perder.

Ficha técnica

Video trailer de la película

Enlaces de descarga

Rip de Bluray

Descargar La Liga Extraordinaria (2003) Full HD 1080p Latino




Aportes de DPeliculasHDmega la pass es:dpeliculashdmega.org Aportes de CinemaniaHD la pass es:cinemaniahdd.com

Películas relacionadas

descargar La Liga Extraordinaria (2003) Full HD 1080p Latino Full 1080p 1080p gratis, La Liga Extraordinaria (2003) Full HD 1080p Latino Full 1080p mega 1 link, La Liga Extraordinaria (2003) Full HD 1080p Latino Full 1080p pelicula completa, descargar La Liga Extraordinaria (2003) Full HD 1080p Latino Full 1080p gratis en mega.

La Liga Extraordinaria (2003) Full HD 1080p Latino pelicula full hd, La Liga Extraordinaria (2003) Full HD 1080p Latino mega latino, La Liga Extraordinaria (2003) Full HD 1080p Latino 4k latino, La Liga Extraordinaria (2003) Full HD 1080p Latino pelicula completa, La Liga Extraordinaria (2003) Full HD 1080p Latino descargar gratis, descargar La Liga Extraordinaria (2003) Full HD 1080p Latino pelicula latino, La Liga Extraordinaria (2003) Full HD 1080p Latino 1 link mega, La Liga Extraordinaria (2003) Full HD 1080p Latino 1 link google drive, La Liga Extraordinaria (2003) Full HD 1080p Latino hd 1080p latino.
Comentarios 1
  • ocpgaiden - 25 marzo, 2022

    Muchisimas gracias