×

¿Problemas para descargar con Mozilla, EDGE? Deshabilita la opción "Abrir vinculos en una pestaña nueva" tal como lo muestra ésta imagen.

The Layover (2017) WEB-DL 1080p Latino

2.509 vistas

Información de The Layover (2017) WEB-DL 1080p Latino

the layover 39757 poster

Datos de la película

  • Calidad: WEBDL
  • Audio: Español Latino AC3 2.0 Capturado - Ingles AC3 5.1 WEBDL
  • Subtitulos: Español Latino SRT
  • Resolución: 1920X792p
  • Formato: MKV
  • Codec: H.264
  • Encoder: CinemaniaHD
  • Mediainfo: Clic para Mostrar Datos Ver
  • Format                                   : Matroska
    Format version                           : Version 4 / Version 2
    File size                                : 3.16 GiB
    Duration                                 : 1 h 27 min
    Overall bit rate                         : 5 161 kb/s
    Movie name                               : CinemaniaHDD.com
    Encoded date                             : UTC 2018-01-13 21:14:51
    Writing application                      : mkvmerge v15.0.0 ('Duel with the Devil') 64-bit
    Writing library                          : libebml v1.3.5 + libmatroska v1.4.5

    Video
    ID                                       : 1
    Format                                   : AVC
    Format/Info                              : Advanced Video Codec
    Format profile                           : High@L4
    Format settings                          : CABAC / 5 Ref Frames
    Format settings, CABAC                   : Yes
    Format settings, RefFrames               : 5 frames
    Codec ID                                 : V_MPEG4/ISO/AVC
    Duration                                 : 1 h 27 min
    Bit rate                                 : 4 524 kb/s
    Width                                    : 1 920 pixels
    Height                                   : 792 pixels
    Display aspect ratio                     : 2.40:1
    Frame rate mode                          : Constant
    Frame rate                               : 23.976 (23976/1000) FPS
    Color space                              : YUV
    Chroma subsampling                       : 4:2:0
    Bit depth                                : 8 bits
    Scan type                                : Progressive
    Bits/(Pixel*Frame)                       : 0.124
    Stream size                              : 2.77 GiB (88%)
    Title                                    : The Layover (2017) WEB-DL 1080p Latino
    Language                                 : English
    Default                                  : Yes
    Forced                                   : No
    Color range                              : Limited
    Color primaries                          : BT.709
    Transfer characteristics                 : BT.709
    Matrix coefficients                      : BT.709

    Audio #1
    ID                                       : 2
    Format                                   : AC-3
    Format/Info                              : Audio Coding 3
    Format settings, Endianness              : Big
    Codec ID                                 : A_AC3
    Duration                                 : 1 h 26 min
    Bit rate mode                            : Constant
    Bit rate                                 : 256 kb/s
    Channel(s)                               : 2 channels
    Channel positions                        : Front: L R
    Sampling rate                            : 48.0 kHz
    Frame rate                               : 31.250 FPS (1536 SPF)
    Bit depth                                : 16 bits
    Compression mode                         : Lossy
    Delay relative to video                  : 1 s 360 ms
    Stream size                              : 158 MiB (5%)
    Language                                 : Spanish
    Service kind                             : Complete Main
    Default                                  : Yes
    Forced                                   : No

    Audio #2
    ID                                       : 3
    Format                                   : AC-3
    Format/Info                              : Audio Coding 3
    Format settings, Endianness              : Big
    Codec ID                                 : A_AC3
    Duration                                 : 1 h 27 min
    Bit rate mode                            : Constant
    Bit rate                                 : 384 kb/s
    Channel(s)                               : 6 channels
    Channel positions                        : Front: L C R, Side: L R, LFE
    Sampling rate                            : 48.0 kHz
    Frame rate                               : 31.250 FPS (1536 SPF)
    Bit depth                                : 16 bits
    Compression mode                         : Lossy
    Stream size                              : 241 MiB (7%)
    Language                                 : English
    Service kind                             : Complete Main
    Default                                  : No
    Forced                                   : No

    Text
    ID                                       : 4
    Format                                   : UTF-8
    Codec ID                                 : S_TEXT/UTF8
    Codec ID/Info                            : UTF-8 Plain Text
    Duration                                 : 1 h 22 min
    Bit rate                                 : 91 b/s
    Count of elements                        : 1666
    Stream size                              : 55.1 KiB (0%)
    Language                                 : Spanish
    Default                                  : Yes
    Forced                                   : No

    Menu
    00:00:00.000                             : en:1
    00:05:08.000                             : en:2
    00:11:34.000                             : en:3
    00:16:48.000                             : en:4
    00:22:07.000                             : en:5
    00:27:07.000                             : en:6
    00:32:07.000                             : en:7
    00:37:49.000                             : en:8
    00:43:37.000                             : en:9
    00:49:32.000                             : en:10
    00:54:54.000                             : en:11
    01:00:23.000                             : en:12
    01:05:57.000                             : en:13
    01:11:57.000                             : en:14
    01:17:03.000                             : en:15
    01:21:32.000                             : en:16

     

  • Peso: 3.16 GiB

Sinopsis

The Layover es una comedia romántica protagonizada por Alexandra Daddario (la serie de televisión True detective) y Kate Upton (No hay dos sin tres). Interpretan a una pareja de amigas de toda la vida que deciden embarcarse en un viaje para olvidar sus problemas, pero no empiezan con buen pie ya que el avión en el que iban a volar se desvía de su camino debido a una alerta de huracán. Por si no fuera poco, en la parada que hacen en St. Louis ambas se encuentran luchando por el amor del mismo hombre. ¿Qué más puede ocurrir?

Ficha técnica

  • Titulo original: The Layover
  • Fecha de lanzamiento: 01-09-2017 (United States of America)
  • Director: William H. Macy
  • Género: Comedia

Video trailer de la película

Enlaces de descarga

Rip de Bluray

Descargar The Layover (2017) WEB-DL 1080p Latino




Aportes de DPeliculasHDmega la pass es:dpeliculashdmega.org Aportes de CinemaniaHD la pass es:cinemaniahdd.com Aportes recientes:cinemaniahdd.net
Guardado en : Comedia

Películas relacionadas

descargar The Layover (2017) WEB-DL 1080p Latino WEBDL 1080p gratis, The Layover (2017) WEB-DL 1080p Latino WEBDL mega 1 link, The Layover (2017) WEB-DL 1080p Latino WEBDL pelicula completa, descargar The Layover (2017) WEB-DL 1080p Latino WEBDL gratis en mega.

The Layover (2017) WEB-DL 1080p Latino pelicula full hd, The Layover (2017) WEB-DL 1080p Latino mega latino, The Layover (2017) WEB-DL 1080p Latino 4k latino, The Layover (2017) WEB-DL 1080p Latino pelicula completa, The Layover (2017) WEB-DL 1080p Latino descargar gratis, descargar The Layover (2017) WEB-DL 1080p Latino pelicula latino, The Layover (2017) WEB-DL 1080p Latino 1 link mega, The Layover (2017) WEB-DL 1080p Latino 1 link google drive, The Layover (2017) WEB-DL 1080p Latino hd 1080p latino.
Comentarios 2