×

¿Problemas para descargar con Mozilla, EDGE? Deshabilita la opción "Abrir vinculos en una pestaña nueva" tal como lo muestra ésta imagen.

The Last Stand (2013) REMUX 1080p Latino – CMHDD

239 vistas

Información de The Last Stand (2013) REMUX 1080p Latino – CMHDD

Datos de la película

  • Calidad: Full 1080p
  • Audio: Español Latino AC3 5.1 BLURAY - Ingles DTS-HD Master 7.1 BLURAY
  • Subtitulos: Español Latino PGS
  • Resolución: 1929x1080p
  • Formato: MKV
  • Codec: H.264
  • Encoder: Dracarys
  • Mediainfo: Clic para Mostrar Datos Ver
  • Format                      : Matroska
    Format version              : Version 4
    File size                   : 29.7 GiB
    Duration                    : 1 h 47 min
    Overall bit rate mode       : Variable
    Overall bit rate            : 39.5 Mb/s
    Movie name                  : The Last Stand (2013) REMUX 1080p Latino - CMHDD
    Encoded date                : UTC 2023-04-07 02:02:31
    Writing application         : mkvmerge v47.0.0 ('Black Flag') 64-bit
    Writing library             : libebml v1.3.10 + libmatroska v1.5.2
    Cover                       : Yes
    Attachments                 : cover.jpg

    Video
    ID                          : 1
    Format                      : AVC
    Format/Info                 : Advanced Video Codec
    Format profile              : High@L4.1
    Format settings             : CABAC / 4 Ref Frames
    Format settings, CABAC      : Yes
    Format settings, Reference  : 4 frames
    Codec ID                    : V_MPEG4/ISO/AVC
    Duration                    : 1 h 47 min
    Bit rate mode               : Variable
    Bit rate                    : 33.8 Mb/s
    Maximum bit rate            : 37.0 Mb/s
    Width                       : 1 920 pixels
    Height                      : 1 080 pixels
    Display aspect ratio        : 16:9
    Frame rate mode             : Constant
    Frame rate                  : 23.976 (23976/1000) FPS
    Original frame rate         : 23.976 (24000/1001) FPS
    Color space                 : YUV
    Chroma subsampling          : 4:2:0
    Bit depth                   : 8 bits
    Scan type                   : Progressive
    Bits/(Pixel*Frame)          : 0.679
    Stream size                 : 25.4 GiB (85%)
    Default                     : Yes
    Forced                      : No

    Audio #1
    ID                          : 2
    Format                      : DTS XLL
    Format/Info                 : Digital Theater Systems
    Commercial name             : DTS-HD Master Audio
    Codec ID                    : A_DTS
    Duration                    : 1 h 47 min
    Bit rate mode               : Variable
    Bit rate                    : 5 109 kb/s
    Channel(s)                  : 8 channels
    Channel layout              : C L R LFE Lb Rb Lss Rss
    Sampling rate               : 48.0 kHz
    Frame rate                  : 93.750 FPS (512 SPF)
    Bit depth                   : 24 bits
    Compression mode            : Lossless
    Stream size                 : 3.84 GiB (13%)
    Language                    : English
    Default                     : No
    Forced                      : No

    Audio #2
    ID                          : 3
    Format                      : AC-3
    Format/Info                 : Audio Coding 3
    Commercial name             : Dolby Digital
    Codec ID                    : A_AC3
    Duration                    : 1 h 47 min
    Bit rate mode               : Constant
    Bit rate                    : 640 kb/s
    Channel(s)                  : 6 channels
    Channel layout              : L R C LFE Ls Rs
    Sampling rate               : 48.0 kHz
    Frame rate                  : 31.250 FPS (1536 SPF)
    Compression mode            : Lossy
    Stream size                 : 493 MiB (2%)
    Language                    : Spanish
    Service kind                : Complete Main
    Default                     : Yes
    Forced                      : No

    Text
    ID                          : 4
    Format                      : PGS
    Muxing mode                 : zlib
    Codec ID                    : S_HDMV/PGS
    Codec ID/Info               : Picture based subtitle format used on BDs/HD-DVDs
    Duration                    : 1 h 38 min
    Bit rate                    : 27.6 kb/s
    Frame rate                  : 0.378 FPS
    Count of elements           : 2230
    Stream size                 : 19.4 MiB (0%)
    Language                    : Spanish
    Default                     : No
    Forced                      : No

    Menu
    00:00:00.000                : en:Capítulo 01
    00:03:57.028                : en:Capítulo 02
    00:09:08.256                : en:Capítulo 03
    00:09:25.773                : en:Capítulo 04
    00:13:09.955                : en:Capítulo 05
    00:18:55.759                : en:Capítulo 06
    00:26:07.065                : en:Capítulo 07
    00:26:38.722                : en:Capítulo 08
    00:29:06.327                : en:Capítulo 09
    00:38:00.986                : en:Capítulo 10
    00:46:44.009                : en:Capítulo 11
    00:50:03.291                : en:Capítulo 12
    01:11:23.751                : en:Capítulo 13
    01:16:30.877                : en:Capítulo 14
    01:20:01.546                : en:Capítulo 15
    01:26:02.699                : en:Capítulo 16
    01:39:29.338                : en:Capítulo 17
     

  • Peso: 29.7 GiB

Sinopsis

Thriller de acción sobre un cartel de la droga. Un narcotraficante escapa de la justicia y se refugia en México, pero la policía de un pequeño pueblo fronterizo y la torpeza de sus hombres ponen en peligro su libertad.

Ficha técnica

Video trailer de la película

Enlaces de descarga

Rip de Bluray

Descargar The Last Stand (2013) REMUX 1080p Latino – CMHDD


Aportes de DPeliculasHDmega la pass es:dpeliculashdmega.org Aportes de CinemaniaHD la pass es:cinemaniahdd.com Aportes recientes:cinemaniahdd.net
Guardado en : Acción , Crimen , Suspenso

Películas relacionadas

  • Combate clandestino (2024) AMZN WEB-DL 1080p Latino

    Combate clandestino (2024) AMZN WEB-DL 1080p Latino

    2024
    Combate clandestino (2024) AMZN WEB-DL 1080p Latino

    1h 30m 2024

    Descargar Combate clandestino (2024) AMZN WEB-DL 1080p Latino. Un ex soldado a la deriva se convierte...

    Director: Christian Sesma

    Género: Acción

    Actores: Tyler Wombles

  • ¡Patos! (2023) HD 1080p Latino

    ¡Patos! (2023) HD 1080p Latino

    2023
    ¡Patos! (2023) HD 1080p Latino

    1h 23m 2023

    Descargar ¡Patos! (2023) HD 1080p Latino. Después de que una familia de patos migratorios aterriza...

    Director: Guy-Laurent Homsy

    Género: Acción

    Actores: Zeno Robinson

  • ¡Patos! (2023) PLACEBO Full HD 1080p Latino

    ¡Patos! (2023) PLACEBO Full HD 1080p Latino

    2023
    ¡Patos! (2023) PLACEBO Full HD 1080p Latino

    1h 23m 2023

    Descargar ¡Patos! (2023) PLACEBO Full HD 1080p Latino. Después de que una familia de patos migratorios...

    Director: Guy-Laurent Homsy

    Género: Acción

    Actores: Zeno Robinson

  • ¡Patos! (2023) REMUX 1080p Latino

    ¡Patos! (2023) REMUX 1080p Latino

    2023
    ¡Patos! (2023) REMUX 1080p Latino

    1h 23m 2023

    Descargar ¡Patos! (2023) REMUX 1080p Latino. Después de que una familia de patos migratorios aterriza...

    Director: Guy-Laurent Homsy

    Género: Acción

    Actores: Zeno Robinson

descargar The Last Stand (2013) REMUX 1080p Latino – CMHDD Full 1080p 1080p gratis, The Last Stand (2013) REMUX 1080p Latino – CMHDD Full 1080p mega 1 link, The Last Stand (2013) REMUX 1080p Latino – CMHDD Full 1080p pelicula completa, descargar The Last Stand (2013) REMUX 1080p Latino – CMHDD Full 1080p gratis en mega.

The Last Stand (2013) REMUX 1080p Latino – CMHDD pelicula full hd, The Last Stand (2013) REMUX 1080p Latino – CMHDD mega latino, The Last Stand (2013) REMUX 1080p Latino – CMHDD 4k latino, The Last Stand (2013) REMUX 1080p Latino – CMHDD pelicula completa, The Last Stand (2013) REMUX 1080p Latino – CMHDD descargar gratis, descargar The Last Stand (2013) REMUX 1080p Latino – CMHDD pelicula latino, The Last Stand (2013) REMUX 1080p Latino – CMHDD 1 link mega, The Last Stand (2013) REMUX 1080p Latino – CMHDD 1 link google drive, The Last Stand (2013) REMUX 1080p Latino – CMHDD hd 1080p latino.
Comentarios 0