×

¿Problemas para descargar con Mozilla, EDGE? Deshabilita la opción "Abrir vinculos en una pestaña nueva" tal como lo muestra ésta imagen.

The Last of Us (2023) Temporada 1 HBO 4K-HDR WEB-DL 2160p Latino

76 vistas

Información de The Last of Us (2023) Temporada 1 HBO 4K-HDR WEB-DL 2160p Latino

Datos de la película

  • Calidad: 4K HDR
  • Audio: Español Latino AC3 5.1 WEB-DL - Ingles AC3 5.1 WEB-DL
  • Subtitulos: Español Latino SRT- FORZADOS SRT
  • Resolución: 3840x2160
  • Formato: MKV
  • Codec: HEVC
  • Encoder: cinemaniahdd
  • Mediainfo: Clic para Mostrar Datos Ver
  • The Last of Us T01E01 HBO 4K-HDR WEB-DL 2160p Latino [CNMNHDD].mkv Format                      : Matroska Format version              : Version 4 File size                   : 10.5 GiB Duration                    : 1 h 20 min Overall bit rate            : 18.6 Mb/s Movie name                  : The Last of Us S01E01 - When You're Lost in the Darkness [2160p] - CinemaniaHDD.Net Encoded date                : UTC 2023-01-16 02:18:55 Writing application         : mkvmerge v58.0.0 ('Supper's Ready') 32-bit Writing library             : libebml v1.4.2 + libmatroska v1.6.4 Video ID                          : 1 Format                      : HEVC Format/Info                 : High Efficiency Video Coding Format profile              : Main 10@L5@Main HDR format                  : SMPTE ST 2086, HDR10 compatible Codec ID                    : V_MPEGH/ISO/HEVC Duration                    : 1 h 20 min Bit rate                    : 17.8 Mb/s Width                       : 3 840 pixels Height                      : 2 160 pixels Display aspect ratio        : 16:9 Frame rate mode             : Constant Frame rate                  : 23.976 (24000/1001) FPS Color space                 : YUV Chroma subsampling          : 4:2:0 Bit depth                   : 10 bits Bits/(Pixel*Frame)          : 0.089 Stream size                 : 10.0 GiB (96%) Title                       : CinemaniaHDD Writing library             : x265 3.4hy:[Linux][GCC 7.5.0][64 bit] 10bit Encoding settings           : cpuid=1111039 / frame-threads=1 / wpp / no-pmode / no-pme / no-psnr / no-ssim / log-level=2 / input-csp=1 / input-res=3840x2160 / interlace=0 / total-frames=0 / level-idc=0 / high-tier=1 / uhd-bd=0 / ref=4 / no-allow-non-conformance / repeat-headers / annexb / no-aud / no-hrd / info / hash=0 / no-temporal-layers / no-open-gop / min-keyint=96 / keyint=96 / gop-lookahead=0 / bframes=3 / b-adapt=2 / b-pyramid / bframe-bias=0 / rc-lookahead=25 / lookahead-slices=4 / scenecut=40 / hist-scenecut=0 / radl=0 / no-splice / no-intra-refresh / ctu=64 / min-cu-size=8 / rect / no-amp / max-tu-size=32 / tu-inter-depth=1 / tu-intra-depth=1 / limit-tu=0 / rdoq-level=2 / dynamic-rd=0.00 / no-ssim-rd / signhide / no-tskip / nr-intra=0 / nr-inter=0 / no-constrained-intra / strong-intra-smoothing / max-merge=3 / limit-refs=3 / limit-modes / me=3 / subme=3 / merange=57 / temporal-mvp / no-frame-dup / no-hme / weightp / no-weightb / no-analyze-src-pics / deblock=0:0 / sao / no-sao-non-deblock / rd=4 / selective-sao=4 / no-early-skip / rskip / no-fast-intra / no-tskip-fast / no-cu-lossless / no-b-intra / no-splitrd-skip / rdpenalty=0 / psy-rd=2.00 / psy-rdoq=1.00 / no-rd-refine / no-lossless / cbqpoffs=0 / crqpoffs=0 / rc=abr / bitrate=18000 / qcomp=0.60 / qpstep=4 / stats-write=0 / stats-read=2 / cplxblur=20.0 / qblur=0.5 / vbv-maxrate=24500 / vbv-bufsize=24500 / vbv-init=0.6 / vbv-end=0.6 / vbv-end-fr-adj=0.0 / ipratio=1.40 / pbratio=1.30 / aq-mode=2 / aq-strength=1.00 / cutree / zone-count=0 / no-strict-cbr / qg-size=32 / no-rc-grain / qpmax=69 / qpmin=0 / no-const-vbv / sar=0 / overscan=0 / videoformat=5 / range=0 / colorprim=9 / transfer=16 / colormatrix=9 / chromaloc=0 / display-window=0 / master-display=G(8500,39850)B(6550,2300)R(35400,14600)WP(15635,16450)L(10000000,1) / cll=501,235 / min-luma=0 / max-luma=1023 / log2-max-poc-lsb=8 / vui-timing-info / vui-hrd-info / no-concatenation / slices=1 / no-opt-qp-pps / no-opt-ref-list-length-pps / no-multi-pass-opt-rps / scenecut-bias=0.05 / hist-threshold=0.01 / no-opt-cu-delta-qp / no-aq-motion / hdr10 / no-hdr10-opt / no-dhdr10-opt / no-idr-recovery-sei / analysis-reuse-level=0 / analysis-save-reuse-level=0 / analysis-load-reuse-level=0 / scale-factor=0 / refine-intra=0 / refine-inter=0 / refine-mv=1 / refine-ctu-distortion=0 / no-limit-sao / ctu-info=0 / no-lowpass-dct / refine-analysis-type=0 / copy-pic=1 / max-ausize-factor=1.0 / no-dynamic-refine / no-single-sei / no-hevc-aq / no-svt / no-field / qp-adaptation-range=1.00 / no-scenecut-aware-qpconformance-window-offsets / right=0 / bottom=0 / decoder-max-rate=0 Default                     : Yes Forced                      : No Color range                 : Limited Color primaries             : BT.2020 Transfer characteristics    : PQ Matrix coefficients         : BT.2020 non-constant Mastering display color pri : BT.2020 Mastering display luminance : min: 0.0001 cd/m2, max: 1000 cd/m2 Maximum Content Light Level : 501 cd/m2 Maximum Frame-Average Light : 235 cd/m2 Audio #1 ID                          : 2 Format                      : AC-3 Format/Info                 : Audio Coding 3 Commercial name             : Dolby Digital Codec ID                    : A_AC3 Duration                    : 1 h 20 min Bit rate mode               : Constant Bit rate                    : 384 kb/s Channel(s)                  : 6 channels Channel layout              : L R C LFE Ls Rs Sampling rate               : 48.0 kHz Frame rate                  : 31.250 FPS (1536 SPF) Compression mode            : Lossy Stream size                 : 222 MiB (2%) Title                       : Español latino [CinemaniaHDD] Language                    : Spanish Service kind                : Complete Main Default                     : Yes Forced                      : No Audio #2 ID                          : 3 Format                      : AC-3 Format/Info                 : Audio Coding 3 Commercial name             : Dolby Digital Codec ID                    : A_AC3 Duration                    : 1 h 20 min Bit rate mode               : Constant Bit rate                    : 384 kb/s Channel(s)                  : 6 channels Channel layout              : L R C LFE Ls Rs Sampling rate               : 48.0 kHz Frame rate                  : 31.250 FPS (1536 SPF) Compression mode            : Lossy Stream size                 : 222 MiB (2%) Title                       : Inglés [CinemaniaHDD] Language                    : English Service kind                : Complete Main Default                     : No Forced                      : No Text #1 ID                          : 4 Format                      : UTF-8 Codec ID                    : S_TEXT/UTF8 Codec ID/Info               : UTF-8 Plain Text Duration                    : 1 h 9 min Bit rate                    : 1 b/s Count of elements           : 21 Stream size                 : 525 Bytes (0%) Title                       : Forzados [CinemaniaHDD] Language                    : Spanish Default                     : No Forced                      : Yes Text #2 ID                          : 5 Format                      : UTF-8 Codec ID                    : S_TEXT/UTF8 Codec ID/Info               : UTF-8 Plain Text Duration                    : 1 h 20 min Bit rate                    : 41 b/s Count of elements           : 962 Stream size                 : 24.5 KiB (0%) Title                       : Español latino [CinemaniaHDD] Language                    : Spanish Default                     : No Forced                      : No Text #3 ID                          : 6 Format                      : UTF-8 Codec ID                    : S_TEXT/UTF8 Codec ID/Info               : UTF-8 Plain Text Duration                    : 1 h 18 min Bit rate                    : 49 b/s Count of elements           : 982 Stream size                 : 28.7 KiB (0%) Language                    : English Default                     : No Forced                      : No Menu 00:03:20.199                : Intro  
  • Peso: 10.5 GiB C/U --- 4 CAPÍTULOS AGREGADOS

Sinopsis

Joel, uno de los pocos sobrevivientes, es contratado para sacar de contrabando a Ellie, una niña de 14 años, fuera de una opresiva zona de cuarentena. Lo que pareciera ser un pequeño trabajo, se convierte en un viaje brutal y desgarrador.

4 CAPÍTULOS AGREGADOS

Ficha técnica

Video trailer de la película

Enlaces de descarga

Rip de Bluray

Descargar The Last of Us (2023) Temporada 1 HBO 4K-HDR WEB-DL 2160p Latino




Aportes de DPeliculasHDmega la pass es:dpeliculashdmega.org Aportes de CinemaniaHD la pass es:cinemaniahdd.com

Películas relacionadas

  • Transfusion (2023) HD 1080p Latino

    Transfusion (2023) HD 1080p Latino

    2023
    Transfusion (2023) HD 1080p Latino

    1h 45m 2023

    Descargar Transfusion (2023) HD 1080p Latino. Un antiguo agente de las Fuerzas Especiales se ve empujado...

    Director: Matt Nable

    Género: Crimen

    Actores: Trystan Go

  • Transfusion (2023) PLACEBO Full HD 1080p Latino

    Transfusion (2023) PLACEBO Full HD 1080p Latino

    2023
    Transfusion (2023) PLACEBO Full HD 1080p Latino

    1h 45m 2023

    Descargar Transfusion (2023) PLACEBO Full HD 1080p Latino. Un antiguo agente de las Fuerzas Especiales...

    Director: Matt Nable

    Género: Crimen

    Actores: Trystan Go

  • Transfusion (2023) REMUX 1080p Latino

    Transfusion (2023) REMUX 1080p Latino

    2023
    Transfusion (2023) REMUX 1080p Latino

    1h 45m 2023

    Descargar Transfusion (2023) REMUX 1080p Latino. Un antiguo agente de las Fuerzas Especiales se ve empujado...

    Director: Matt Nable

    Género: Crimen

    Actores: Trystan Go

  • Quantum Leap (2022) Temporada 1 WEB-DL 1080p Latino

    Quantum Leap (2022) Temporada 1 WEB-DL 1080p Latino

    2022
    Quantum Leap (2022) Temporada 1 WEB-DL 1080p Latino

    0h 43m 2022

    Han pasado 27 años desde que el Dr. Sam Beckett pisó el acelerador Quantum Leap y desapareció. Ahora...

    Director: Donald P. Bellisario

    Género: Drama

    Actores: Raymond Lee

  • Gladiador (2000) EXTENDED CUT 1080p Latino

    Gladiador (2000) EXTENDED CUT 1080p Latino

    2000
    Gladiador (2000) EXTENDED CUT 1080p Latino

    2h 35m 2000

    Gladiador (2000) EXTENDED CUT 1080p Latino. Máximo, General de las Legiones Romanas, es querido por...

    Director: Ridley Scott

    Género: Acción

    Actores: Tony Curran

descargar The Last of Us (2023) Temporada 1 HBO 4K-HDR WEB-DL 2160p Latino 4K HDR 1080p gratis, The Last of Us (2023) Temporada 1 HBO 4K-HDR WEB-DL 2160p Latino 4K HDR mega 1 link, The Last of Us (2023) Temporada 1 HBO 4K-HDR WEB-DL 2160p Latino 4K HDR serie completa, descargar The Last of Us (2023) Temporada 1 HBO 4K-HDR WEB-DL 2160p Latino 4K HDR gratis en mega.

The Last of Us (2023) Temporada 1 HBO 4K-HDR WEB-DL 2160p Latino pelicula full hd, The Last of Us (2023) Temporada 1 HBO 4K-HDR WEB-DL 2160p Latino mega latino, The Last of Us (2023) Temporada 1 HBO 4K-HDR WEB-DL 2160p Latino 4k latino, The Last of Us (2023) Temporada 1 HBO 4K-HDR WEB-DL 2160p Latino pelicula completa, The Last of Us (2023) Temporada 1 HBO 4K-HDR WEB-DL 2160p Latino descargar gratis, descargar The Last of Us (2023) Temporada 1 HBO 4K-HDR WEB-DL 2160p Latino pelicula latino, The Last of Us (2023) Temporada 1 HBO 4K-HDR WEB-DL 2160p Latino 1 link mega, The Last of Us (2023) Temporada 1 HBO 4K-HDR WEB-DL 2160p Latino 1 link google drive, The Last of Us (2023) Temporada 1 HBO 4K-HDR WEB-DL 2160p Latino hd 1080p latino.
Comentarios 0