The Last Laugh (2019) NF 1080p Español Latino

372 vistas
1 estrella2 estrellas3 estrellas4 estrellas5 estrellas (1 votos, promedio: 2,00 de 5)
Cargando…

Información de The Last Laugh (2019) NF 1080p Español Latino

Datos de la película

  • Calidad: WEBDL
  • Audio: Español Latino AC3 5.1 Netflix - Ingles AC3 5.1 Netflix
  • Subtitulos: Español Latino SRT - Ingles SRT
  • Resolución: 1920x1080
  • Formato: MKV
  • Codec: H.264
  • Encoder: cinemaniahd
  • Mediainfo: Clic para Mostrar Datos Ver
  • La Ultima Carcajada (2019) NF 1080p Español Latino.mkv
    Format                      : Matroska
    Format version              : Version 4
    File size                   : 4.02 GiB
    Duration                    : 1 h 38 min
    Overall bit rate mode       : Variable
    Overall bit rate            : 5 841 kb/s
    Movie name                  : CinemaniaHDD.net
    Encoded date                : UTC 2019-01-11 08:29:43 / UTC 2018-12-18 14:26:04
    Writing application         : mkvmerge v29.0.0 ('Like It Or Not') 64-bit
    Writing library             : libebml v1.3.6 + libmatroska v1.4.9 / Lavf58.0.0

    Video
    ID                          : 1
    Format                      : AVC
    Format/Info                 : Advanced Video Codec
    Format profile              : [email protected]
    Format settings             : CABAC / 3 Ref Frames
    Format settings, CABAC      : Yes
    Format settings, ReFrames   : 3 frames
    Codec ID                    : V_MPEG4/ISO/AVC
    Duration                    : 1 h 38 min
    Bit rate mode               : Variable
    Bit rate                    : 5 110 kb/s
    Maximum bit rate            : 7 665 kb/s
    Width                       : 1 920 pixels
    Height                      : 1 080 pixels
    Display aspect ratio        : 16:9
    Frame rate mode             : Constant
    Frame rate                  : 23.976 (24000/1001) FPS
    Color space                 : YUV
    Chroma subsampling          : 4:2:0
    Bit depth                   : 8 bits
    Scan type                   : Progressive
    Bits/(Pixel*Frame)          : 0.103
    Stream size                 : 3.42 GiB (85%)
    Writing library             : x264 core 148 r2715 7e75228
    Encoding settings           : cabac=1 / ref=3 / deblock=1:0:0 / analyse=0x1:0x111 / me=umh / subme=10 / psy=1 / psy_rd=1.00:0.00 / mixed_ref=1 / me_range=24 / chroma_me=1 / trellis=2 / 8x8dct=0 / cqm=0 / deadzone=21,11 / fast_pskip=1 / chroma_qp_offset=-2 / threads=8 / lookahead_threads=1 / sliced_threads=0 / nr=0 / decimate=1 / interlaced=0 / bluray_compat=0 / stitchable=1 / constrained_intra=0 / bframes=2 / b_pyramid=0 / b_adapt=2 / b_bias=0 / direct=3 / weightb=1 / open_gop=0 / weightp=2 / keyint=48 / keyint_min=25 / scenecut=0 / intra_refresh=0 / rc_lookahead=48 / rc=2pass / mbtree=1 / bitrate=5110 / ratetol=1.0 / qcomp=0.50 / qpmin=6 / qpmax=51 / qpstep=4 / cplxblur=20.0 / qblur=0.5 / vbv_maxrate=7665 / vbv_bufsize=10220 / nal_hrd=vbr / filler=0 / ip_ratio=1.40 / aq=1:1.00
    Default                     : Yes
    Forced                      : No
    Statistics Tags Issue       : mkvmerge v29.0.0 ('Like It Or Not') 64-bit 2019-01-11 08:29:43 / mkvmerge v29.0.0 ('Like It Or Not') 64-bit 2019-01-11 08:29:43 / UTC 2018-12-18 14:26:04
    FromStats_BitRate           : 5070576
    FromStats_Duration          : 01:38:38.288000000
    FromStats_FrameCount        : 141897
    FromStats_StreamSize        : 3751141842

    Audio #1
    ID                          : 2
    Format                      : AC-3
    Format/Info                 : Audio Coding 3
    Commercial name             : Dolby Digital
    Codec ID                    : A_AC3
    Duration                    : 1 h 38 min
    Bit rate mode               : Constant
    Bit rate                    : 384 kb/s
    Channel(s)                  : 6 channels
    Channel layout              : L R C LFE Ls Rs
    Sampling rate               : 48.0 kHz
    Frame rate                  : 31.250 FPS (1536 SPF)
    Bit depth                   : 16 bits
    Compression mode            : Lossy
    Stream size                 : 271 MiB (7%)
    Title                       : Español Latino / www.cinemaniahdd.net
    Language                    : Spanish
    Service kind                : Complete Main
    Default                     : Yes
    Forced                      : No
    Encoded date                : UTC 2019-01-10 21:25:24
    Statistics Tags Issue       : mkvmerge v29.0.0 ('Like It Or Not') 64-bit 2019-01-11 08:29:43 / mkvmerge v29.0.0 ('Like It Or Not') 64-bit 2019-01-11 08:29:43 / UTC 2018-12-18 14:26:04
    FromStats_BitRate           : 384000
    FromStats_Duration          : 01:38:38.624000000
    FromStats_FrameCount        : 184957
    FromStats_StreamSize        : 284093952

    Audio #2
    ID                          : 3
    Format                      : AC-3
    Format/Info                 : Audio Coding 3
    Commercial name             : Dolby Digital
    Codec ID                    : A_AC3
    Duration                    : 1 h 38 min
    Bit rate mode               : Constant
    Bit rate                    : 384 kb/s
    Channel(s)                  : 6 channels
    Channel layout              : L R C LFE Ls Rs
    Sampling rate               : 48.0 kHz
    Frame rate                  : 31.250 FPS (1536 SPF)
    Bit depth                   : 16 bits
    Compression mode            : Lossy
    Stream size                 : 271 MiB (7%)
    Title                       : Ingles / www.cinemaniahdd.net
    Service kind                : Complete Main
    Default                     : No
    Forced                      : No
    Encoded date                : UTC 2018-12-18 14:26:04
    Statistics Tags Issue       : mkvmerge v29.0.0 ('Like It Or Not') 64-bit 2019-01-11 08:29:43 / mkvmerge v29.0.0 ('Like It Or Not') 64-bit 2019-01-11 08:29:43 / UTC 2018-12-18 14:26:04
    FromStats_BitRate           : 384000
    FromStats_Duration          : 01:38:38.624000000
    FromStats_FrameCount        : 184957
    FromStats_StreamSize        : 284093952

    Text #1
    ID                          : 4
    Format                      : UTF-8
    Codec ID                    : S_TEXT/UTF8
    Codec ID/Info               : UTF-8 Plain Text
    Title                       : Spanish
    Language                    : Spanish
    Default                     : No
    Forced                      : No
    Statistics Tags Issue       : mkvmerge v29.0.0 ('Like It Or Not') 64-bit 2019-01-11 08:29:43 / mkvmerge v29.0.0 ('Like It Or Not') 64-bit 2019-01-11 08:29:43 / UTC 2018-12-18 14:26:04
    FromStats_BitRate           : 49
    FromStats_Duration          : 01:37:49.906000000
    FromStats_FrameCount        : 1318
    FromStats_StreamSize        : 36526

    Text #2
    ID                          : 5
    Format                      : UTF-8
    Codec ID                    : S_TEXT/UTF8
    Codec ID/Info               : UTF-8 Plain Text
    Title                       : English
    Language                    : English
    Default                     : No
    Forced                      : No
    Statistics Tags Issue       : mkvmerge v29.0.0 ('Like It Or Not') 64-bit 2019-01-11 08:29:43 / mkvmerge v29.0.0 ('Like It Or Not') 64-bit 2019-01-11 08:29:43 / UTC 2018-12-18 14:26:04
    FromStats_BitRate           : 62
    FromStats_Duration          : 01:32:09.816000000
    FromStats_FrameCount        : 1349
    FromStats_StreamSize        : 42946

  • Peso: 4.02 GiB

Sinopsis

Después de mudarse a una casa de retiro, el inquieto gerente de talentos Al se vuelve a conectar con Buddy, un cliente de hace mucho tiempo, y lo incita a regresar al circuito de comedia.

Ficha técnica

  • Titulo original: The Last Laugh
  • Fecha de lanzamiento: 11-01-2019 (United States of America)
  • Director: Greg Pritikin
  • Género: Comedia, Peliculas Netflix
  • Puntuación: 2.0 1 votos
  • Duración:
    1h 38m

Video trailer de la película

Enlaces de descarga

Rip de Bluray

Descargar The Last Laugh (2019) NF 1080p Español Latino




Aportes de DPeliculasHDmega la pass es:dpeliculashdmega.org Aportes de CinemaniaHD la pass es:cinemaniahdd.com
Guardado en : Comedia , Peliculas Netflix

Películas relacionadas

  • Time Freak (2018) Full 1080p Español Latino

    2018
    Time Freak (2018) Full 1080p Español Latino

    4.0 1h 44m 2018

    Descargar Time Freak (2018) Full 1080p Latino, Mega, Google Drive, Torrent. Un joven estudiante de física...

    Director: Andrew Bowler

    Género: Ciencia ficción

    Actores: William Peltz

  • Time Freak (2018) 1080p Español Latino

    2018
    Time Freak (2018) 1080p Español Latino

    4.0 1h 44m 2018

    Descargar Time Freak (2018) 1080p Latino, Mega, Google Drive, Torrent. Un joven estudiante de física...

    Director: Andrew Bowler

    Género: Ciencia ficción

    Actores: William Peltz

Comentarios 0