×

¿Problemas para descargar con Mozilla, EDGE? Deshabilita la opción "Abrir vinculos en una pestaña nueva" tal como lo muestra ésta imagen.

The Last Full Measure (2020) [Uncut] AMZN WEB-DL 1080p Latino

362 vistas

Información de The Last Full Measure (2020) [Uncut] AMZN WEB-DL 1080p Latino

Datos de la película

  • Calidad: WEBDL
  • Audio: Español Latino AC3 2.0 WEB-DL - Ingles AC3 5.1 WEB-DL
  • Subtitulos: Español Latino SRT- FORZADOS SRT
  • Resolución: 1920x800
  • Formato: MKV
  • Codec: H.264
  • Encoder: cinemaniahdd
  • Mediainfo: Clic para Mostrar Datos Ver
  • The Last Full Measure (2020) [Uncut] AMZN WEB-DL 1080p Latino [CNMNHDD].mkv
    Format                      : Matroska
    Format version              : Version 4
    File size                   : 7.49 GiB
    Duration                    : 1 h 56 min
    Overall bit rate            : 9 225 kb/s
    Movie name                  : The Last Full Measure (2020) Uncut - CinemaniaHDD.net
    Encoded date                : UTC 2020-11-08 21:01:22
    Writing application         : mkvmerge v51.0.0 ('I Wish') 64-bit
    Writing library             : libebml v1.4.0 + libmatroska v1.6.2

    Video
    ID                          : 1
    Format                      : AVC
    Format/Info                 : Advanced Video Codec
    Format profile              : High@L4
    Format settings             : CABAC / 4 Ref Frames
    Format settings, CABAC      : Yes
    Format settings, Reference  : 4 frames
    Codec ID                    : V_MPEG4/ISO/AVC
    Duration                    : 1 h 56 min
    Bit rate mode               : Constant
    Bit rate                    : 8 326 kb/s
    Nominal bit rate            : 10 000 kb/s
    Width                       : 1 920 pixels
    Height                      : 800 pixels
    Display aspect ratio        : 2.40:1
    Frame rate mode             : Constant
    Frame rate                  : 23.976 (24000/1001) FPS
    Color space                 : YUV
    Chroma subsampling          : 4:2:0
    Bit depth                   : 8 bits
    Scan type                   : Progressive
    Bits/(Pixel*Frame)          : 0.226
    Stream size                 : 6.76 GiB (90%)
    Title                       : CinemaniaHDD
    Default                     : Yes
    Forced                      : No
    Color range                 : Limited
    Color primaries             : BT.709
    Transfer characteristics    : BT.709
    Matrix coefficients         : BT.709

    Audio #1
    ID                          : 2
    Format                      : AC-3
    Format/Info                 : Audio Coding 3
    Commercial name             : Dolby Digital
    Codec ID                    : A_AC3
    Duration                    : 1 h 56 min
    Bit rate mode               : Constant
    Bit rate                    : 256 kb/s
    Channel(s)                  : 2 channels
    Channel layout              : L R
    Sampling rate               : 48.0 kHz
    Frame rate                  : 31.250 FPS (1536 SPF)
    Compression mode            : Lossy
    Stream size                 : 213 MiB (3%)
    Title                       : Español latino [CinemaniaHDD]
    Language                    : Spanish
    Service kind                : Complete Main
    Default                     : Yes
    Forced                      : No

    Audio #2
    ID                          : 3
    Format                      : E-AC-3
    Format/Info                 : Enhanced AC-3
    Commercial name             : Dolby Digital Plus
    Codec ID                    : A_EAC3
    Duration                    : 1 h 56 min
    Bit rate mode               : Constant
    Bit rate                    : 640 kb/s
    Channel(s)                  : 6 channels
    Channel layout              : L R C LFE Ls Rs
    Sampling rate               : 48.0 kHz
    Frame rate                  : 31.250 FPS (1536 SPF)
    Compression mode            : Lossy
    Stream size                 : 532 MiB (7%)
    Title                       : Inglés [CinemaniaHDD]
    Language                    : English
    Service kind                : Complete Main
    Default                     : No
    Forced                      : No

    Text #1
    ID                          : 4
    Format                      : UTF-8
    Codec ID                    : S_TEXT/UTF8
    Codec ID/Info               : UTF-8 Plain Text
    Duration                    : 48 min 43 s
    Bit rate                    : 0 b/s
    Count of elements           : 8
    Stream size                 : 213 Bytes (0%)
    Title                       : Forzados [CinemaniaHDD]
    Language                    : Spanish
    Default                     : Yes
    Forced                      : Yes

    Text #2
    ID                          : 5
    Format                      : UTF-8
    Codec ID                    : S_TEXT/UTF8
    Codec ID/Info               : UTF-8 Plain Text
    Duration                    : 1 h 51 min
    Bit rate                    : 66 b/s
    Count of elements           : 1820
    Stream size                 : 54.2 KiB (0%)
    Title                       : Español latino [CinemaniaHDD]
    Language                    : Spanish
    Default                     : No
    Forced                      : No

    Text #3
    ID                          : 6
    Format                      : UTF-8
    Codec ID                    : S_TEXT/UTF8
    Codec ID/Info               : UTF-8 Plain Text
    Duration                    : 1 h 51 min
    Bit rate                    : 70 b/s
    Count of elements           : 1858
    Stream size                 : 58.0 KiB (0%)
    Title                       : Inglés [CC] [CinemaniaHDD]
    Language                    : English
    Default                     : No
    Forced                      : No

    Menu
    00:00:00.000                : en:Studio Logo
    00:00:42.000                : en:Opening Credits
    00:03:40.000                : en:Scene 3
    00:04:58.000                : en:Scene 4
    00:10:55.000                : en:Scene 5
    00:14:36.000                : en:Scene 6
    00:19:53.000                : en:Scene 7
    00:25:10.000                : en:Scene 8
    00:32:45.000                : en:Scene 9
    00:37:30.000                : en:Scene 10
    00:43:13.000                : en:Scene 11
    00:49:16.000                : en:Scene 12
    00:54:58.000                : en:Scene 13
    01:00:09.000                : en:Scene 14
    01:05:22.000                : en:Scene 15
    01:11:20.000                : en:Scene 16
    01:17:29.000                : en:Scene 17
    01:23:10.000                : en:Scene 18
    01:29:46.000                : en:Scene 19
    01:34:04.000                : en:Scene 20
    01:37:15.000                : en:Scene 21
    01:41:43.000                : en:Scene 22
    01:49:53.000                : en:End Credits

     

  • Peso: 7.49 GiB

Sinopsis

Narra la historia del paramédico William H. Pitsenbarger, que salvó él solo a más de 60 personas en la guerra del Vietnam, y de la investigación de un miembro del Pentágono, Scott Huffman (Sebastian Stan), que trabajó contra viendo y marea superando todos los obstáculos para que se honrara al médico con la medalla al valor.

Ficha técnica

  • Titulo original: The Last Full Measure
  • Fecha de lanzamiento: 23-01-2020 (United States of America)
  • Director: Todd Robinson
  • Género: Bélica, Drama

Video trailer de la película

Enlaces de descarga

Rip de Bluray

Descargar The Last Full Measure (2020) [Uncut] AMZN WEB-DL 1080p Latino




Aportes de DPeliculasHDmega la pass es:dpeliculashdmega.org Aportes de CinemaniaHD la pass es:cinemaniahdd.com
Guardado en : Bélica , Drama

Películas relacionadas

  • El discurso del Rey (2010) 1080p Latino

    El discurso del Rey (2010) 1080p Latino

    2010
    El discurso del Rey (2010) 1080p Latino

    1h 58m 2010

    Descargar El discurso del Rey (2010) 1080p Latino. El duque de York se convirtió en rey de Gran Bretaña...

    Director: Tom Hooper

    Género: Drama

    Actores: Tony Earnshaw

  • El discurso del Rey (2010) Full HD 1080p Latino

    El discurso del Rey (2010) Full HD 1080p Latino

    2010
    El discurso del Rey (2010) Full HD 1080p Latino

    1h 58m 2010

    Descargar El discurso del Rey (2010) Full HD 1080p Latino. El duque de York se convirtió en rey de Gran...

    Director: Tom Hooper

    Género: Drama

    Actores: Tony Earnshaw

  • El discurso del Rey (2010) REMUX 1080p Latino

    El discurso del Rey (2010) REMUX 1080p Latino

    2010
    El discurso del Rey (2010) REMUX 1080p Latino

    1h 58m 2010

    Descargar El discurso del Rey (2010) REMUX 1080p Latino. El duque de York se convirtió en rey de Gran...

    Director: Tom Hooper

    Género: Drama

    Actores: Tony Earnshaw

  • 8 Mile (2002) REMUX 4K HDR Latino – CMHDD

    8 Mile (2002) REMUX 4K HDR Latino – CMHDD

    2002
    8 Mile (2002) REMUX 4K HDR Latino – CMHDD

    1h 50m 2002

    Detroit, 1995. La promesa de potencia industrial se ha transformado en un hervidero de conflictos económicos...

    Director: Michael J. Moore

    Género: Drama

    Actores: Xzibit

descargar The Last Full Measure (2020) [Uncut] AMZN WEB-DL 1080p Latino WEBDL 1080p gratis, The Last Full Measure (2020) [Uncut] AMZN WEB-DL 1080p Latino WEBDL mega 1 link, The Last Full Measure (2020) [Uncut] AMZN WEB-DL 1080p Latino WEBDL pelicula completa, descargar The Last Full Measure (2020) [Uncut] AMZN WEB-DL 1080p Latino WEBDL gratis en mega.

The Last Full Measure (2020) [Uncut] AMZN WEB-DL 1080p Latino pelicula full hd, The Last Full Measure (2020) [Uncut] AMZN WEB-DL 1080p Latino mega latino, The Last Full Measure (2020) [Uncut] AMZN WEB-DL 1080p Latino 4k latino, The Last Full Measure (2020) [Uncut] AMZN WEB-DL 1080p Latino pelicula completa, The Last Full Measure (2020) [Uncut] AMZN WEB-DL 1080p Latino descargar gratis, descargar The Last Full Measure (2020) [Uncut] AMZN WEB-DL 1080p Latino pelicula latino, The Last Full Measure (2020) [Uncut] AMZN WEB-DL 1080p Latino 1 link mega, The Last Full Measure (2020) [Uncut] AMZN WEB-DL 1080p Latino 1 link google drive, The Last Full Measure (2020) [Uncut] AMZN WEB-DL 1080p Latino hd 1080p latino.
Comentarios 0