×

¿Problemas para descargar con Mozilla, EDGE? Deshabilita la opción "Abrir vinculos en una pestaña nueva" tal como lo muestra ésta imagen.

The Last Dance (2020) Serie Documental REMUX 1080p Latino – CMHDD

365 vistas

Información de The Last Dance (2020) Serie Documental REMUX 1080p Latino – CMHDD

Datos de la película

  • Calidad: Full 1080p
  • Audio: Español Latino AC3 5.1 BLURAY - Ingles DTS 5.1 BLURAY
  • Subtitulos: Español Latino SRT- FORZADOS SRT
  • Resolución: 1920x1080p
  • Formato: MKV
  • Codec: H.264
  • Encoder: Dracarys
  • Mediainfo: Clic para Mostrar Datos Ver
  • Format                      : Matroska
    Format version              : Version 4
    File size                   : 9.96 GiB
    Duration                    : 50 min 5 s
    Overall bit rate mode       : Variable
    Overall bit rate            : 28.5 Mb/s
    Movie name                  : The Last Dance (2020) [S01E01] REMUX 1080p Latino - CMHDD
    Encoded date                : UTC 2020-12-27 18:11:57
    Writing application         : mkvmerge v51.0.0 ('I Wish') 64-bit
    Writing library             : libebml v1.4.0 + libmatroska v1.6.2

    Video
    ID                          : 1
    Format                      : AVC
    Format/Info                 : Advanced Video Codec
    Format profile              : High@L4.1
    Format settings             : CABAC / 4 Ref Frames
    Format settings, CABAC      : Yes
    Format settings, Reference  : 4 frames
    Codec ID                    : V_MPEG4/ISO/AVC
    Duration                    : 50 min 5 s
    Bit rate mode               : Variable
    Bit rate                    : 24.4 Mb/s
    Maximum bit rate            : 37.4 Mb/s
    Width                       : 1 920 pixels
    Height                      : 1 080 pixels
    Display aspect ratio        : 16:9
    Frame rate mode             : Constant
    Frame rate                  : 23.976 (24000/1001) FPS
    Color space                 : YUV
    Chroma subsampling          : 4:2:0
    Bit depth                   : 8 bits
    Scan type                   : Progressive
    Bits/(Pixel*Frame)          : 0.491
    Stream size                 : 8.54 GiB (86%)
    Default                     : Yes
    Forced                      : No

    Audio #1
    ID                          : 2
    Format                      : AC-3
    Format/Info                 : Audio Coding 3
    Commercial name             : Dolby Digital
    Codec ID                    : A_AC3
    Duration                    : 50 min 5 s
    Bit rate mode               : Constant
    Bit rate                    : 640 kb/s
    Channel(s)                  : 6 channels
    Channel layout              : L R C LFE Ls Rs
    Sampling rate               : 48.0 kHz
    Frame rate                  : 31.250 FPS (1536 SPF)
    Compression mode            : Lossy
    Stream size                 : 229 MiB (2%)
    Language                    : Spanish
    Service kind                : Complete Main
    Default                     : Yes
    Forced                      : No

    Audio #2
    ID                          : 3
    Format                      : DTS XLL
    Format/Info                 : Digital Theater Systems
    Commercial name             : DTS-HD Master Audio
    Codec ID                    : A_DTS
    Duration                    : 50 min 5 s
    Bit rate mode               : Variable
    Bit rate                    : 3 380 kb/s
    Channel(s)                  : 6 channels
    Channel layout              : C L R Ls Rs LFE
    Sampling rate               : 48.0 kHz
    Frame rate                  : 93.750 FPS (512 SPF)
    Bit depth                   : 24 bits
    Compression mode            : Lossless
    Stream size                 : 1.18 GiB (12%)
    Language                    : English
    Default                     : No
    Forced                      : No

    Text #1
    ID                          : 4
    Format                      : PGS
    Muxing mode                 : zlib
    Codec ID                    : S_HDMV/PGS
    Codec ID/Info               : Picture based subtitle format used on BDs/HD-DVDs
    Duration                    : 49 min 40 s
    Bit rate                    : 63.4 kb/s
    Count of elements           : 1604
    Stream size                 : 22.5 MiB (0%)
    Language                    : Spanish
    Default                     : No
    Forced                      : No

    Text #2
    ID                          : 5
    Format                      : PGS
    Muxing mode                 : zlib
    Codec ID                    : S_HDMV/PGS
    Codec ID/Info               : Picture based subtitle format used on BDs/HD-DVDs
    Duration                    : 49 min 40 s
    Bit rate                    : 6 373 b/s
    Count of elements           : 178
    Stream size                 : 2.26 MiB (0%)
    Language                    : Spanish
    Default                     : No
    Forced                      : No

    Text #3
    ID                          : 6
    Format                      : UTF-8
    Codec ID                    : S_TEXT/UTF8
    Codec ID/Info               : UTF-8 Plain Text
    Duration                    : 49 min 40 s
    Bit rate                    : 7 b/s
    Count of elements           : 89
    Stream size                 : 2.73 KiB (0%)
    Language                    : Spanish
    Default                     : Yes
    Forced                      : No

  • Peso: 99.4 GiB Total

Sinopsis

The Last Dance, El último baile en España,es una serie documental de Netflix con material inédito de la carrera de uno de los jugadores de baloncesto más famosos del mundo como es Michael Jordan durante la temporada 1997-98 y su trayectoria de los Chicago Bulls en los años 90.

Mediante algún que otro flashback, la serie cuenta los inicios de Jordan en la NBA además de cómo fue un viaje de pretemporada a París en un momento de tensión con el director Jerry Krause. También cuenta cómo una lesión al inicio de la carrera de Michael sembró una gran desconfianza en la dirección de los Bulls.

Michael Jordan se convirtió en un icono cultural global en 1992, consiguiendo incluso sus míticas zapatillas Air Jordan. Pero esto no quita que su reputación se viese en peligro tras que un libro revelase su afición a las apuestas.

Ficha técnica

  • Titulo original: The Last Dance
  • Fecha de lanzamiento: 19-04-2020 (US)
  • Director: Mike Tollin
  • Género: Documental

Video trailer de la película

Enlaces de descarga

Rip de Bluray

Descargar The Last Dance (2020) Serie Documental REMUX 1080p Latino – CMHDD


Aportes de DPeliculasHDmega la pass es:dpeliculashdmega.org Aportes de CinemaniaHD la pass es:cinemaniahdd.com
Guardado en : Documental

Películas relacionadas

descargar The Last Dance (2020) Serie Documental REMUX 1080p Latino – CMHDD Full 1080p 1080p gratis, The Last Dance (2020) Serie Documental REMUX 1080p Latino – CMHDD Full 1080p mega 1 link, The Last Dance (2020) Serie Documental REMUX 1080p Latino – CMHDD Full 1080p pelicula completa, descargar The Last Dance (2020) Serie Documental REMUX 1080p Latino – CMHDD Full 1080p gratis en mega.

The Last Dance (2020) Serie Documental REMUX 1080p Latino – CMHDD pelicula full hd, The Last Dance (2020) Serie Documental REMUX 1080p Latino – CMHDD mega latino, The Last Dance (2020) Serie Documental REMUX 1080p Latino – CMHDD 4k latino, The Last Dance (2020) Serie Documental REMUX 1080p Latino – CMHDD pelicula completa, The Last Dance (2020) Serie Documental REMUX 1080p Latino – CMHDD descargar gratis, descargar The Last Dance (2020) Serie Documental REMUX 1080p Latino – CMHDD pelicula latino, The Last Dance (2020) Serie Documental REMUX 1080p Latino – CMHDD 1 link mega, The Last Dance (2020) Serie Documental REMUX 1080p Latino – CMHDD 1 link google drive, The Last Dance (2020) Serie Documental REMUX 1080p Latino – CMHDD hd 1080p latino.
Comentarios 0