×

¿Problemas para descargar con Mozilla, EDGE? Deshabilita la opción "Abrir vinculos en una pestaña nueva" tal como lo muestra ésta imagen.

Indiana Jones Y La Ultima Cruzada (1989) REMUX 1080p Latino

172 vistas

Información de Indiana Jones Y La Ultima Cruzada (1989) REMUX 1080p Latino

Datos de la película

  • Calidad: Full 1080p
  • Audio: Se especifica abajo de la Sinopsis
  • Subtitulos: Español Latino PGS - Ingles PGS
  • Resolución: 1920x1080p
  • Formato: MKV
  • Codec: H.264
  • Encoder: CinefiloCool
  • Mediainfo: Clic para Mostrar Datos Ver
  • Indiana Jones La Ultima Cruzada (1989) REMUX 1080p Latino-CMHDD.mkv
    Format                      : Matroska
    Format version              : Version 4
    File size                   : 36.4 GiB
    Duration                    : 2 h 6 min
    Overall bit rate mode       : Variable
    Overall bit rate            : 41.1 Mb/s
    Movie name                  : Indiana Jones: And The Last Crusade (1989) CinemaniaHDD.Net
    Encoded date                : UTC 2021-06-27 07:26:18
    Writing application         : mkvmerge v56.1.0 ('My Friend') 64-bit
    Writing library             : libebml v1.4.2 + libmatroska v1.6.4
    Attachments                 : CINEMANIAHD.png

    Video
    ID                          : 1
    Format                      : AVC
    Format/Info                 : Advanced Video Codec
    Format profile              : High@L4.1
    Format settings             : CABAC / 4 Ref Frames
    Format settings, CABAC      : Yes
    Format settings, Reference  : 4 frames
    Codec ID                    : V_MPEG4/ISO/AVC
    Duration                    : 2 h 6 min
    Bit rate mode               : Variable
    Bit rate                    : 34.8 Mb/s
    Maximum bit rate            : 36.0 Mb/s
    Width                       : 1 920 pixels
    Height                      : 1 080 pixels
    Display aspect ratio        : 16:9
    Frame rate mode             : Constant
    Frame rate                  : 23.976 (24000/1001) FPS
    Color space                 : YUV
    Chroma subsampling          : 4:2:0
    Bit depth                   : 8 bits
    Scan type                   : Progressive
    Bits/(Pixel*Frame)          : 0.700
    Stream size                 : 30.8 GiB (85%)
    Title                       : REMUX HD1080p [CinemaniaHDD]
    Default                     : Yes
    Forced                      : Yes

    Audio #1
    ID                          : 2
    Format                      : AC-3
    Format/Info                 : Audio Coding 3
    Commercial name             : Dolby Digital
    Codec ID                    : A_AC3
    Duration                    : 2 h 6 min
    Bit rate mode               : Constant
    Bit rate                    : 640 kb/s
    Channel(s)                  : 6 channels
    Channel layout              : L R C LFE Ls Rs
    Sampling rate               : 48.0 kHz
    Frame rate                  : 31.250 FPS (1536 SPF)
    Compression mode            : Lossy
    Stream size                 : 581 MiB (2%)
    Title                       : Español Latino REDUB [CinemaniaHDD]
    Language                    : Spanish
    Service kind                : Complete Main
    Default                     : Yes
    Forced                      : Yes

    Audio #2
    ID                          : 3
    Format                      : AC-3
    Format/Info                 : Audio Coding 3
    Commercial name             : Dolby Digital
    Codec ID                    : A_AC3
    Duration                    : 2 h 6 min
    Bit rate mode               : Constant
    Bit rate                    : 224 kb/s
    Channel(s)                  : 2 channels
    Channel layout              : L R
    Sampling rate               : 48.0 kHz
    Frame rate                  : 31.250 FPS (1536 SPF)
    Compression mode            : Lossy
    Stream size                 : 203 MiB (1%)
    Title                       : Español Latino ORG [CinemaniaHDD]
    Language                    : Spanish
    Service kind                : Complete Main
    Default                     : No
    Forced                      : No

    Audio #3
    ID                          : 4
    Format                      : E-AC-3
    Format/Info                 : Enhanced AC-3
    Commercial name             : Dolby Digital Plus
    Codec ID                    : A_EAC3
    Duration                    : 2 h 6 min
    Bit rate mode               : Constant
    Bit rate                    : 640 kb/s
    Channel(s)                  : 6 channels
    Channel layout              : L R C LFE Ls Rs
    Sampling rate               : 48.0 kHz
    Frame rate                  : 31.250 FPS (1536 SPF)
    Compression mode            : Lossy
    Stream size                 : 581 MiB (2%)
    Title                       : Español Latino REDUB DDP [CinemaniaHDD]
    Language                    : Spanish
    Service kind                : Complete Main
    Default                     : No
    Forced                      : No

    Audio #4
    ID                          : 5
    Format                      : MLP FBA 16-ch
    Format/Info                 : Meridian Lossless Packing FBA with 16-channel presentation
    Commercial name             : Dolby TrueHD with Dolby Atmos
    Codec ID                    : A_TRUEHD
    Duration                    : 2 h 6 min
    Bit rate mode               : Variable
    Bit rate                    : 4 034 kb/s
    Maximum bit rate            : 5 772 kb/s
    Channel(s)                  : 8 channels
    Channel layout              : L R C LFE Ls Rs Lb Rb
    Sampling rate               : 48.0 kHz
    Frame rate                  : 1 200.000 FPS (40 SPF)
    Compression mode            : Lossless
    Stream size                 : 3.57 GiB (10%)
    Title                       : Ingles THD [CinemaniaHDD]
    Language                    : English
    Default                     : No
    Forced                      : No
    Number of dynamic objects   : 11
    Bed channel count           : 1 channel
    Bed channel configuration   : LFE

    Audio #5
    ID                          : 6
    Format                      : AC-3
    Format/Info                 : Audio Coding 3
    Commercial name             : Dolby Digital
    Codec ID                    : A_AC3
    Duration                    : 2 h 6 min
    Bit rate mode               : Constant
    Bit rate                    : 640 kb/s
    Channel(s)                  : 6 channels
    Channel layout              : L R C LFE Ls Rs
    Sampling rate               : 48.0 kHz
    Frame rate                  : 31.250 FPS (1536 SPF)
    Compression mode            : Lossy
    Stream size                 : 581 MiB (2%)
    Title                       : Ingles AC3 [CinemaniaHDD]
    Language                    : English
    Service kind                : Complete Main
    Default                     : No
    Forced                      : No

    Text #1
    ID                          : 7
    Format                      : PGS
    Muxing mode                 : zlib
    Codec ID                    : S_HDMV/PGS
    Codec ID/Info               : Picture based subtitle format used on BDs/HD-DVDs
    Duration                    : 1 h 59 min
    Bit rate                    : 18.7 kb/s
    Count of elements           : 1746
    Stream size                 : 15.9 MiB (0%)
    Title                       : Español-PGS [CinemaniaHDD]
    Language                    : Spanish
    Default                     : No
    Forced                      : No

    Text #2
    ID                          : 8
    Format                      : PGS
    Muxing mode                 : zlib
    Codec ID                    : S_HDMV/PGS
    Codec ID/Info               : Picture based subtitle format used on BDs/HD-DVDs
    Duration                    : 1 h 58 min
    Bit rate                    : 25.3 kb/s
    Count of elements           : 2388
    Stream size                 : 21.3 MiB (0%)
    Title                       : Ingles-PGS [CinemaniaHDD]
    Language                    : English
    Default                     : No
    Forced                      : No

    Text #3
    ID                          : 9
    Format                      : UTF-8
    Codec ID                    : S_TEXT/UTF8
    Codec ID/Info               : UTF-8 Plain Text
    Duration                    : 1 h 15 min
    Bit rate                    : 0 b/s
    Count of elements           : 14
    Stream size                 : 212 Bytes (0%)
    Title                       : Forzados-SRT [CinemaniaHDD]
    Language                    : Spanish
    Default                     : Yes
    Forced                      : Yes

    Text #4
    ID                          : 10
    Format                      : UTF-8
    Codec ID                    : S_TEXT/UTF8
    Codec ID/Info               : UTF-8 Plain Text
    Duration                    : 1 h 58 min
    Bit rate                    : 34 b/s
    Count of elements           : 876
    Stream size                 : 29.8 KiB (0%)
    Title                       : Español-SRT [CinemaniaHDD]
    Language                    : Spanish
    Default                     : No
    Forced                      : No

    Menu
    00:00:00.000                : Utah, 1912 / the Cross of Coronado
    00:04:41.906                : The Pursuit
    00:08:11.032                : Belongs in a Museum
    00:11:49.041                : Portuguese Coast, 1938
    00:14:14.436                : Barnett College
    00:17:19.413                : Meeting Donovan
    00:22:14.583                : Ransacked
    00:24:51.448                : To Venice
    00:26:52.152                : "X" Marks the Spot
    00:30:15.563                : Rats!
    00:36:31.564                : Boat Chase
    00:41:10.426                : "Ah, Venice"
    00:44:41.387                : To Castle Brunwald
    00:47:42.401                : Family Reunion
    00:50:23.729                : "What Book?"
    00:54:47.534                : Brody and Sallah
    00:56:31.137                : Austrian & German Goodbyes
    01:00:16.112                : "Head for the Fireplace"
    01:03:08.743                : Motorcycle Chase
    01:05:31.385                : Grail Obsession
    01:07:47.313                : Into the Lion's Den
    01:10:43.530                : The Zeppelin
    01:13:36.328                : A Rebuke
    01:16:11.358                : Dogfight
    01:18:57.107                : Close Call
    01:21:20.041                : Hatay
    01:23:28.420                : Approaching the Canyon
    01:25:16.736                : Ambush
    01:26:58.046                : Belly of the Steel Beast
    01:31:21.934                : Tank Showdown
    01:36:57.061                : "I Thought I'd Lost You"
    01:38:53.427                : Canyon of the Crescent Moon
    01:41:32.544                : The Three Challenges
    01:49:18.260                : "Choose Wisely"
    01:56:05.667                : Crossing the Seal
    02:00:05.907                : Sunset and End Credits

  • Peso: 36.4 GiB

Sinopsis

Descargar Indiana Jones La Ultima Cruzada (1989) REMUX 1080p Latino. En esta tercera entrega, el padre del protagonista (Harrison Ford), Henry Jones, también arqueólogo (Sean Connery), es secuestrado cuando buscaba el Santo Grial. Indiana tendrá que ir a rescatarlo y, de paso, intentar hacerse con la preciada reliquia, que también ambicionan los nazis.

Audio Español Latino AC3 5.1 ReDub BD + EAC3 NF + AC3 2.0 Dub Org – Ingles TrueHD 7.1 + AC3 5.1 BD

Nota:
Proximamente Para Usuarios Free, Disponible Solo Para VIP!! 🙂

Ficha técnica

Video trailer de la película

Enlaces de descarga

Rip de Bluray

Descargar Indiana Jones Y La Ultima Cruzada (1989) REMUX 1080p Latino


Aportes de DPeliculasHDmega la pass es:dpeliculashdmega.org Aportes de CinemaniaHD la pass es:cinemaniahdd.com
Guardado en : Acción , Aventura , Remux
Etiquetado en :

Películas relacionadas

descargar Indiana Jones Y La Ultima Cruzada (1989) REMUX 1080p Latino Full 1080p 1080p gratis, Indiana Jones Y La Ultima Cruzada (1989) REMUX 1080p Latino Full 1080p mega 1 link, Indiana Jones Y La Ultima Cruzada (1989) REMUX 1080p Latino Full 1080p pelicula completa, descargar Indiana Jones Y La Ultima Cruzada (1989) REMUX 1080p Latino Full 1080p gratis en mega.

Indiana Jones Y La Ultima Cruzada (1989) REMUX 1080p Latino pelicula full hd, Indiana Jones Y La Ultima Cruzada (1989) REMUX 1080p Latino mega latino, Indiana Jones Y La Ultima Cruzada (1989) REMUX 1080p Latino 4k latino, Indiana Jones Y La Ultima Cruzada (1989) REMUX 1080p Latino pelicula completa, Indiana Jones Y La Ultima Cruzada (1989) REMUX 1080p Latino descargar gratis, descargar Indiana Jones Y La Ultima Cruzada (1989) REMUX 1080p Latino pelicula latino, Indiana Jones Y La Ultima Cruzada (1989) REMUX 1080p Latino 1 link mega, Indiana Jones Y La Ultima Cruzada (1989) REMUX 1080p Latino 1 link google drive, Indiana Jones Y La Ultima Cruzada (1989) REMUX 1080p Latino hd 1080p latino.
Comentarios 0