×

¿Problemas para descargar con Mozilla, EDGE? Deshabilita la opción "Abrir vinculos en una pestaña nueva" tal como lo muestra ésta imagen.

Indiana Jones Y La Ultima Cruzada (1989) 1080p Latino

220 vistas

Información de Indiana Jones Y La Ultima Cruzada (1989) 1080p Latino

Datos de la película

  • Calidad: 1080p
  • Audio: Se especifica abajo de la Sinopsis
  • Subtitulos: Español Latino SRT - Ingles SRT
  • Resolución: 1920x816p
  • Formato: MKV
  • Codec: H.264
  • Encoder: CinefiloCool
  • Mediainfo: Clic para Mostrar Datos Ver
  • Indiana Jones La Ultima Cruzada (1989) 1080p Latino-CMHDD.mkv
    Format                      : Matroska
    Format version              : Version 4
    File size                   : 5.32 GiB
    Duration                    : 2 h 6 min
    Overall bit rate            : 6 006 kb/s
    Movie name                  : Indiana Jones: And The Last Crusade (1989) CinemaniaHDD.Net
    Encoded date                : UTC 2021-06-29 07:53:34
    Writing application         : mkvmerge v56.1.0 ('My Friend') 64-bit
    Writing library             : libebml v1.4.2 + libmatroska v1.6.4
    Attachments                 : CINEMANIAHD.png

    Video
    ID                          : 1
    Format                      : AVC
    Format/Info                 : Advanced Video Codec
    Format profile              : High@L4.1
    Format settings             : CABAC / 4 Ref Frames
    Format settings, CABAC      : Yes
    Format settings, Reference  : 4 frames
    Codec ID                    : V_MPEG4/ISO/AVC
    Duration                    : 2 h 6 min
    Bit rate                    : 4 500 kb/s
    Width                       : 1 920 pixels
    Height                      : 816 pixels
    Display aspect ratio        : 2.35:1
    Frame rate mode             : Constant
    Frame rate                  : 23.976 (24000/1001) FPS
    Color space                 : YUV
    Chroma subsampling          : 4:2:0
    Bit depth                   : 8 bits
    Scan type                   : Progressive
    Bits/(Pixel*Frame)          : 0.120
    Stream size                 : 3.99 GiB (75%)
    Title                       : HD1080p [CinemaniaHDD]
    Writing library             : x264 core 142 r2479 dd79a61
    Encoding settings           : cabac=1 / ref=3 / deblock=1:-1:-1 / analyse=0x3:0x113 / me=hex / subme=7 / psy=1 / psy_rd=1.00:0.15 / mixed_ref=1 / me_range=16 / chroma_me=1 / trellis=1 / 8x8dct=1 / cqm=0 / deadzone=21,11 / fast_pskip=1 / chroma_qp_offset=-3 / threads=12 / lookahead_threads=2 / sliced_threads=0 / nr=0 / decimate=1 / interlaced=0 / bluray_compat=0 / constrained_intra=0 / bframes=3 / b_pyramid=2 / b_adapt=1 / b_bias=0 / direct=1 / weightb=1 / open_gop=0 / weightp=2 / keyint=240 / keyint_min=24 / scenecut=40 / intra_refresh=0 / rc_lookahead=40 / rc=2pass / mbtree=1 / bitrate=4500 / ratetol=1.0 / qcomp=0.60 / qpmin=0 / qpmax=69 / qpstep=4 / cplxblur=20.0 / qblur=0.5 / vbv_maxrate=62500 / vbv_bufsize=78125 / nal_hrd=none / filler=0 / ip_ratio=1.40 / aq=1:1.00
    Default                     : Yes
    Forced                      : Yes
    Color range                 : Limited
    Color primaries             : BT.709
    Transfer characteristics    : BT.709
    Matrix coefficients         : BT.709

    Audio #1
    ID                          : 2
    Format                      : AC-3
    Format/Info                 : Audio Coding 3
    Commercial name             : Dolby Digital
    Codec ID                    : A_AC3
    Duration                    : 2 h 6 min
    Bit rate mode               : Constant
    Bit rate                    : 640 kb/s
    Channel(s)                  : 6 channels
    Channel layout              : L R C LFE Ls Rs
    Sampling rate               : 48.0 kHz
    Frame rate                  : 31.250 FPS (1536 SPF)
    Compression mode            : Lossy
    Delay relative to video     : -83 ms
    Stream size                 : 581 MiB (11%)
    Title                       : Español Latino REDUB [CinemaniaHDD]
    Language                    : Spanish
    Service kind                : Complete Main
    Default                     : Yes
    Forced                      : Yes

    Audio #2
    ID                          : 3
    Format                      : AC-3
    Format/Info                 : Audio Coding 3
    Commercial name             : Dolby Digital
    Codec ID                    : A_AC3
    Duration                    : 2 h 6 min
    Bit rate mode               : Constant
    Bit rate                    : 224 kb/s
    Channel(s)                  : 2 channels
    Channel layout              : L R
    Sampling rate               : 48.0 kHz
    Frame rate                  : 31.250 FPS (1536 SPF)
    Compression mode            : Lossy
    Delay relative to video     : -83 ms
    Stream size                 : 203 MiB (4%)
    Title                       : Español Latino ORG [CinemaniaHDD]
    Language                    : Spanish
    Service kind                : Complete Main
    Default                     : No
    Forced                      : No

    Audio #3
    ID                          : 4
    Format                      : AC-3
    Format/Info                 : Audio Coding 3
    Commercial name             : Dolby Digital
    Codec ID                    : A_AC3
    Duration                    : 2 h 6 min
    Bit rate mode               : Constant
    Bit rate                    : 640 kb/s
    Channel(s)                  : 6 channels
    Channel layout              : L R C LFE Ls Rs
    Sampling rate               : 48.0 kHz
    Frame rate                  : 31.250 FPS (1536 SPF)
    Compression mode            : Lossy
    Delay relative to video     : -83 ms
    Stream size                 : 581 MiB (11%)
    Title                       : Ingles [CinemaniaHDD]
    Language                    : English
    Service kind                : Complete Main
    Default                     : No
    Forced                      : No

    Text #1
    ID                          : 5
    Format                      : UTF-8
    Codec ID                    : S_TEXT/UTF8
    Codec ID/Info               : UTF-8 Plain Text
    Duration                    : 1 h 15 min
    Bit rate                    : 0 b/s
    Count of elements           : 14
    Stream size                 : 212 Bytes (0%)
    Title                       : Forzados-SRT [CinemaniaHDD]
    Language                    : Spanish
    Default                     : Yes
    Forced                      : Yes

    Text #2
    ID                          : 6
    Format                      : UTF-8
    Codec ID                    : S_TEXT/UTF8
    Codec ID/Info               : UTF-8 Plain Text
    Duration                    : 1 h 58 min
    Bit rate                    : 34 b/s
    Count of elements           : 876
    Stream size                 : 29.8 KiB (0%)
    Title                       : Español-SRT [CinemaniaHDD]
    Language                    : Spanish
    Default                     : No
    Forced                      : No

    Text #3
    ID                          : 7
    Format                      : UTF-8
    Codec ID                    : S_TEXT/UTF8
    Codec ID/Info               : UTF-8 Plain Text
    Duration                    : 1 h 58 min
    Bit rate                    : 39 b/s
    Count of elements           : 1181
    Stream size                 : 34.2 KiB (0%)
    Title                       : Ingles-SRT [CinemaniaHDD]
    Language                    : English
    Default                     : No
    Forced                      : No

    Menu
    00:00:00.000                : Utah, 1912 / the Cross of Coronado
    00:04:41.906                : The Pursuit
    00:08:11.032                : Belongs in a Museum
    00:11:49.041                : Portuguese Coast, 1938
    00:14:14.436                : Barnett College
    00:17:19.413                : Meeting Donovan
    00:22:14.583                : Ransacked
    00:24:51.448                : To Venice
    00:26:52.152                : "X" Marks the Spot
    00:30:15.563                : Rats!
    00:36:31.564                : Boat Chase
    00:41:10.426                : "Ah, Venice"
    00:44:41.387                : To Castle Brunwald
    00:47:42.401                : Family Reunion
    00:50:23.729                : "What Book?"
    00:54:47.534                : Brody and Sallah
    00:56:31.137                : Austrian & German Goodbyes
    01:00:16.112                : "Head for the Fireplace"
    01:03:08.743                : Motorcycle Chase
    01:05:31.385                : Grail Obsession
    01:07:47.313                : Into the Lion's Den
    01:10:43.530                : The Zeppelin
    01:13:36.328                : A Rebuke
    01:16:11.358                : Dogfight
    01:18:57.107                : Close Call
    01:21:20.041                : Hatay
    01:23:28.420                : Approaching the Canyon
    01:25:16.736                : Ambush
    01:26:58.046                : Belly of the Steel Beast
    01:31:21.934                : Tank Showdown
    01:36:57.061                : "I Thought I'd Lost You"
    01:38:53.427                : Canyon of the Crescent Moon
    01:41:32.544                : The Three Challenges
    01:49:18.260                : "Choose Wisely"
    01:56:05.667                : Crossing the Seal
    02:00:05.907                : Sunset and End Credits

  • Peso: 5.32 GiB

Sinopsis

Descargar Indiana Jones Y La Ultima Cruzada (1989) 1080p Latino. En esta tercera entrega, el padre del protagonista (Harrison Ford), Henry Jones, también arqueólogo (Sean Connery), es secuestrado cuando buscaba el Santo Grial. Indiana tendrá que ir a rescatarlo y, de paso, intentar hacerse con la preciada reliquia, que también ambicionan los nazis.

Audio Español Latino AC3 5.1 ReDub BD + AC3 2.0 Dub Org – Ingles AC3 5.1 BD

Ficha técnica

Video trailer de la película

Enlaces de descarga

Rip de Bluray

Descargar Indiana Jones Y La Ultima Cruzada (1989) 1080p Latino




Aportes de DPeliculasHDmega la pass es:dpeliculashdmega.org Aportes de CinemaniaHD la pass es:cinemaniahdd.com
Guardado en : Acción , Aventura , HD 1080p

Películas relacionadas

  • Tren Bala (2022) WEB-DL 4K UHD HDR Latino

    Tren Bala (2022) WEB-DL 4K UHD HDR Latino

    2022
    Tren Bala (2022) WEB-DL 4K UHD HDR Latino

    2h 7m 2022

    Descargar Tren Bala (2022) WEB-DL 4K UHD HDR Latino. El desafortunado asesino "Catarina" está decidido...

    Director: Paul Barry

    Género: 4K HDR

    Actores: Zooey Miyoshi

  • Tren Bala (2022) AMZN WEB-DL 1080p Latino

    Tren Bala (2022) AMZN WEB-DL 1080p Latino

    2022
    Tren Bala (2022) AMZN WEB-DL 1080p Latino

    2h 7m 2022

    Descargar Tren Bala (2022) AMZN WEB-DL 1080p Latino. Cinco asesinos a sueldo se encuentran a bordo de...

    Director: Paul Barry

    Género: Acción

    Actores: Zooey Miyoshi

  • Athena (2022) NF WEB-DL 1080p Latino

    Athena (2022) NF WEB-DL 1080p Latino

    2022
    Athena (2022) NF WEB-DL 1080p Latino

    1h 37m 2022

    Descargar Athena (2022) NF WEB-DL 1080p Latino. Horas después de la trágica muerte de su hermano menor...

    Director: Romain Gavras

    Género: Acción

    Actores: Tarek Haddaji

  • Lou (2022) NF WEB-DL 1080p Latino

    Lou (2022) NF WEB-DL 1080p Latino

    2022
    Lou (2022) NF WEB-DL 1080p Latino

    1h 47m 2022

    Descargar Lou (2022) NF WEB-DL 1080p Latino. Una mujer misteriosa y solitaria lucha contra las inclemencias...

    Director: Anna Foerster

    Género: Acción

    Actores: Toby Levins

descargar Indiana Jones Y La Ultima Cruzada (1989) 1080p Latino 1080p 1080p gratis, Indiana Jones Y La Ultima Cruzada (1989) 1080p Latino 1080p mega 1 link, Indiana Jones Y La Ultima Cruzada (1989) 1080p Latino 1080p pelicula completa, descargar Indiana Jones Y La Ultima Cruzada (1989) 1080p Latino 1080p gratis en mega.

Indiana Jones Y La Ultima Cruzada (1989) 1080p Latino pelicula full hd, Indiana Jones Y La Ultima Cruzada (1989) 1080p Latino mega latino, Indiana Jones Y La Ultima Cruzada (1989) 1080p Latino 4k latino, Indiana Jones Y La Ultima Cruzada (1989) 1080p Latino pelicula completa, Indiana Jones Y La Ultima Cruzada (1989) 1080p Latino descargar gratis, descargar Indiana Jones Y La Ultima Cruzada (1989) 1080p Latino pelicula latino, Indiana Jones Y La Ultima Cruzada (1989) 1080p Latino 1 link mega, Indiana Jones Y La Ultima Cruzada (1989) 1080p Latino 1 link google drive, Indiana Jones Y La Ultima Cruzada (1989) 1080p Latino hd 1080p latino.
Comentarios 0