Indiana Jones Y La Ultima Cruzada (1989) Full HD 1080p Latino

2.453 vistas
1 estrella2 estrellas3 estrellas4 estrellas5 estrellas (Ninguna valoración todavía)
Cargando...

Información de Indiana Jones Y La Ultima Cruzada (1989) Full HD 1080p Latino

Datos de la película

  • Calidad: Full 1080p
  • Audio: Se especifica abajo de la Sinopsis
  • Subtitulos: Español Latino PGS - Ingles PGS
  • Resolución: 1920x1080p
  • Formato: MKV
  • Codec: H.264
  • Encoder: CinefiloCool
  • Mediainfo: Clic para Mostrar Datos Ver
  • Indiana Jones La Ultima Cruzada (1989) Full HD 1080p Latino-CMHDD.mkv
    Format                      : Matroska
    Format version              : Version 4
    File size                   : 16.3 GiB
    Duration                    : 2 h 6 min
    Overall bit rate            : 18.4 Mb/s
    Movie name                  : Indiana Jones: And The Last Crusade (1989) CinemaniaHDD.Net
    Encoded date                : UTC 2021-06-28 08:38:25
    Writing application         : mkvmerge v56.1.0 ('My Friend') 64-bit
    Writing library             : libebml v1.4.2 + libmatroska v1.6.4
    Attachments                 : CINEMANIAHD.png

    Video
    ID                          : 1
    Format                      : AVC
    Format/Info                 : Advanced Video Codec
    Format profile              : High@L4.1
    Format settings             : CABAC / 4 Ref Frames
    Format settings, CABAC      : Yes
    Format settings, Reference  : 4 frames
    Codec ID                    : V_MPEG4/ISO/AVC
    Duration                    : 2 h 6 min
    Bit rate                    : 16.9 Mb/s
    Width                       : 1 920 pixels
    Height                      : 1 080 pixels
    Display aspect ratio        : 16:9
    Frame rate mode             : Constant
    Frame rate                  : 23.976 (24000/1001) FPS
    Color space                 : YUV
    Chroma subsampling          : 4:2:0
    Bit depth                   : 8 bits
    Scan type                   : Progressive
    Bits/(Pixel*Frame)          : 0.340
    Stream size                 : 15.0 GiB (92%)
    Title                       : Full HD1080p [CinemaniaHDD]
    Writing library             : x264 core 157 r2935 545de2f
    Encoding settings           : cabac=1 / ref=4 / deblock=1:0:0 / analyse=0x3:0x133 / me=tesa / subme=11 / psy=1 / psy_rd=1.00:0.00 / mixed_ref=1 / me_range=24 / chroma_me=1 / trellis=2 / 8x8dct=1 / cqm=0 / deadzone=21,11 / fast_pskip=0 / chroma_qp_offset=-2 / threads=24 / lookahead_threads=6 / sliced_threads=0 / nr=0 / decimate=1 / interlaced=0 / bluray_compat=0 / constrained_intra=0 / bframes=16 / b_pyramid=2 / b_adapt=2 / b_bias=0 / direct=3 / weightb=1 / open_gop=0 / weightp=2 / keyint=240 / keyint_min=24 / scenecut=40 / intra_refresh=0 / rc_lookahead=60 / rc=crf / mbtree=1 / crf=20.0 / qcomp=0.60 / qpmin=0 / qpmax=69 / qpstep=4 / vbv_maxrate=62500 / vbv_bufsize=78125 / crf_max=0.0 / nal_hrd=none / filler=0 / ip_ratio=1.40 / aq=1:1.00
    Default                     : Yes
    Forced                      : Yes
    Color range                 : Limited
    Color primaries             : BT.709
    Transfer characteristics    : BT.709
    Matrix coefficients         : BT.709

    Audio #1
    ID                          : 2
    Format                      : AC-3
    Format/Info                 : Audio Coding 3
    Commercial name             : Dolby Digital
    Codec ID                    : A_AC3
    Duration                    : 2 h 6 min
    Bit rate mode               : Constant
    Bit rate                    : 640 kb/s
    Channel(s)                  : 6 channels
    Channel layout              : L R C LFE Ls Rs
    Sampling rate               : 48.0 kHz
    Frame rate                  : 31.250 FPS (1536 SPF)
    Compression mode            : Lossy
    Stream size                 : 581 MiB (3%)
    Title                       : Español Latino REDUB [CinemaniaHDD]
    Language                    : Spanish
    Service kind                : Complete Main
    Default                     : Yes
    Forced                      : Yes

    Audio #2
    ID                          : 3
    Format                      : AC-3
    Format/Info                 : Audio Coding 3
    Commercial name             : Dolby Digital
    Codec ID                    : A_AC3
    Duration                    : 2 h 6 min
    Bit rate mode               : Constant
    Bit rate                    : 224 kb/s
    Channel(s)                  : 2 channels
    Channel layout              : L R
    Sampling rate               : 48.0 kHz
    Frame rate                  : 31.250 FPS (1536 SPF)
    Compression mode            : Lossy
    Stream size                 : 203 MiB (1%)
    Title                       : Español Latino ORG [CinemaniaHDD]
    Language                    : Spanish
    Service kind                : Complete Main
    Default                     : No
    Forced                      : No

    Audio #3
    ID                          : 4
    Format                      : AC-3
    Format/Info                 : Audio Coding 3
    Commercial name             : Dolby Digital
    Codec ID                    : A_AC3
    Duration                    : 2 h 6 min
    Bit rate mode               : Constant
    Bit rate                    : 640 kb/s
    Channel(s)                  : 6 channels
    Channel layout              : L R C LFE Ls Rs
    Sampling rate               : 48.0 kHz
    Frame rate                  : 31.250 FPS (1536 SPF)
    Compression mode            : Lossy
    Stream size                 : 581 MiB (3%)
    Title                       : Ingles AC3 [CinemaniaHDD]
    Language                    : English
    Service kind                : Complete Main
    Default                     : No
    Forced                      : No

    Text #1
    ID                          : 5
    Format                      : PGS
    Muxing mode                 : zlib
    Codec ID                    : S_HDMV/PGS
    Codec ID/Info               : Picture based subtitle format used on BDs/HD-DVDs
    Duration                    : 1 h 59 min
    Bit rate                    : 18.7 kb/s
    Count of elements           : 1746
    Stream size                 : 15.9 MiB (0%)
    Title                       : Español-PGS [CinemaniaHDD]
    Language                    : Spanish
    Default                     : No
    Forced                      : No

    Text #2
    ID                          : 6
    Format                      : PGS
    Muxing mode                 : zlib
    Codec ID                    : S_HDMV/PGS
    Codec ID/Info               : Picture based subtitle format used on BDs/HD-DVDs
    Duration                    : 1 h 58 min
    Bit rate                    : 25.3 kb/s
    Count of elements           : 2388
    Stream size                 : 21.3 MiB (0%)
    Title                       : Ingles-PGS [CinemaniaHDD]
    Language                    : English
    Default                     : No
    Forced                      : No

    Text #3
    ID                          : 7
    Format                      : UTF-8
    Codec ID                    : S_TEXT/UTF8
    Codec ID/Info               : UTF-8 Plain Text
    Duration                    : 1 h 15 min
    Bit rate                    : 0 b/s
    Count of elements           : 14
    Stream size                 : 212 Bytes (0%)
    Title                       : Forzados-SRT [CinemaniaHDD]
    Language                    : Spanish
    Default                     : Yes
    Forced                      : Yes

    Text #4
    ID                          : 8
    Format                      : UTF-8
    Codec ID                    : S_TEXT/UTF8
    Codec ID/Info               : UTF-8 Plain Text
    Duration                    : 1 h 58 min
    Bit rate                    : 34 b/s
    Count of elements           : 876
    Stream size                 : 29.8 KiB (0%)
    Title                       : Español-SRT [CinemaniaHDD]
    Language                    : Spanish
    Default                     : No
    Forced                      : No

    Menu
    00:00:00.000                : Utah, 1912 / the Cross of Coronado
    00:04:41.906                : The Pursuit
    00:08:11.032                : Belongs in a Museum
    00:11:49.041                : Portuguese Coast, 1938
    00:14:14.436                : Barnett College
    00:17:19.413                : Meeting Donovan
    00:22:14.583                : Ransacked
    00:24:51.448                : To Venice
    00:26:52.152                : "X" Marks the Spot
    00:30:15.563                : Rats!
    00:36:31.564                : Boat Chase
    00:41:10.426                : "Ah, Venice"
    00:44:41.387                : To Castle Brunwald
    00:47:42.401                : Family Reunion
    00:50:23.729                : "What Book?"
    00:54:47.534                : Brody and Sallah
    00:56:31.137                : Austrian & German Goodbyes
    01:00:16.112                : "Head for the Fireplace"
    01:03:08.743                : Motorcycle Chase
    01:05:31.385                : Grail Obsession
    01:07:47.313                : Into the Lion's Den
    01:10:43.530                : The Zeppelin
    01:13:36.328                : A Rebuke
    01:16:11.358                : Dogfight
    01:18:57.107                : Close Call
    01:21:20.041                : Hatay
    01:23:28.420                : Approaching the Canyon
    01:25:16.736                : Ambush
    01:26:58.046                : Belly of the Steel Beast
    01:31:21.934                : Tank Showdown
    01:36:57.061                : "I Thought I'd Lost You"
    01:38:53.427                : Canyon of the Crescent Moon
    01:41:32.544                : The Three Challenges
    01:49:18.260                : "Choose Wisely"
    01:56:05.667                : Crossing the Seal
    02:00:05.907                : Sunset and End Credits

  • Peso: 16.3 GiB

Sinopsis

Descargar Indiana Jones La Ultima Cruzada (1989) REMUX 1080p Latino. En 1938, Indiana Jones es contratado por el empresario estadounidense Walter Donovan para encontrar el Santo Grial. Para su nueva misión, Indiana recibe la ayuda de la doctora Elsa Schneider, poco antes de enterarse de que su padre desapareció sin dejar rastro alguno. Para su sorpresa, Donovan y Elsa están relacionados con los nazis, y han sido ellos quienes han secuestrado al padre de Jones para obtener información acerca de la localización del Grial. Indiana recupera el diario privado de su padre, que contiene valiosa información sobre el cáliz sagrado, y consigue rescatar a este antes de conocer la ubicación de dicho objeto. Tras encontrarlo, Donovan y Elsa se lo arrebatan, en un intento por conseguir la inmortalidad, pero mueren en el acto por razones diferentes. Al final, Indiana y su padre se percatan de que su relación familiar es más importante que la búsqueda de la reliquia, y el Grial termina desapareciendo junto con el templo en el que se hallaba…

Audio Español Latino AC3 5.1 ReDub BD + AC3 2.0 Dub Org – Ingles AC3 5.1 BD
RESUBIDO NUEVO RIP VERSION PLACEBO!!!

 

Ficha técnica

Video trailer de la película

Enlaces de descarga

Rip de Bluray

Descargar Indiana Jones Y La Ultima Cruzada (1989) Full HD 1080p Latino




Aportes de DPeliculasHDmega la pass es:dpeliculashdmega.org Aportes de CinemaniaHD la pass es:cinemaniahdd.com

Películas relacionadas

Indiana Jones Y La Ultima Cruzada (1989) Full HD 1080p Latino pelicula full hd, Indiana Jones Y La Ultima Cruzada (1989) Full HD 1080p Latino mega latino, Indiana Jones Y La Ultima Cruzada (1989) Full HD 1080p Latino 4k latino, Indiana Jones Y La Ultima Cruzada (1989) Full HD 1080p Latino pelicula completa, Indiana Jones Y La Ultima Cruzada (1989) Full HD 1080p Latino descargar gratis, descargar Indiana Jones Y La Ultima Cruzada (1989) Full HD 1080p Latino pelicula latino, Indiana Jones Y La Ultima Cruzada (1989) Full HD 1080p Latino 1 link mega, Indiana Jones Y La Ultima Cruzada (1989) Full HD 1080p Latino 1 link google drive, Indiana Jones Y La Ultima Cruzada (1989) Full HD 1080p Latino hd 1080p latino.