×

¿Problemas para descargar con Mozilla, EDGE? Deshabilita la opción "Abrir vinculos en una pestaña nueva" tal como lo muestra ésta imagen.

The Last Airbender (2010) WEB-DL 4K HDR Latino – CMHDD

43 vistas

Información de The Last Airbender (2010) WEB-DL 4K HDR Latino – CMHDD

Datos de la película

  • Calidad: 4K HDR
  • Audio: Español Latino AC3 5.1 WEB-DL - Ingles AC3 5.1 WEB-DL
  • Subtitulos: Español Latino SRT- FORZADOS SRT
  • Resolución: 3840x1638p
  • Formato:
  • Codec: H.264
  • Encoder: Dracarys
  • Mediainfo: Clic para Mostrar Datos Ver
  • Format                      : Matroska
    Format version              : Version 4
    File size                   : 18.4 GiB
    Duration                    : 1 h 43 min
    Overall bit rate            : 25.4 Mb/s
    Movie name                  : The Last Airbender (2010) WEB-DL 4K HDR Latino - CMHDD
    Encoded date                : UTC 2024-03-10 02:13:31
    Writing application         : mkvmerge v47.0.0 ('Black Flag') 64-bit
    Writing library             : libebml v1.3.10 + libmatroska v1.5.2

    Video
    ID                          : 1
    Format                      : HEVC
    Format/Info                 : High Efficiency Video Coding
    Format profile              : Main 10@L5@High
    HDR format                  : SMPTE ST 2086, HDR10 compatible
    Codec ID                    : V_MPEGH/ISO/HEVC
    Duration                    : 1 h 43 min
    Bit rate                    : 24.5 Mb/s
    Width                       : 3 840 pixels
    Height                      : 1 634 pixels
    Display aspect ratio        : 2.35:1
    Frame rate mode             : Constant
    Frame rate                  : 23.976 FPS
    Color space                 : YUV
    Chroma subsampling          : 4:2:0 (Type 2)
    Bit depth                   : 10 bits
    Bits/(Pixel*Frame)          : 0.163
    Stream size                 : 17.7 GiB (96%)
    Language                    : English
    Default                     : Yes
    Forced                      : No
    Color range                 : Limited
    Color primaries             : BT.2020
    Transfer characteristics    : PQ
    Matrix coefficients         : BT.2020 non-constant
    Mastering display color pri : Display P3
    Mastering display luminance : min: 0.0050 cd/m2, max: 1000 cd/m2
    Maximum Content Light Level : 1432 cd/m2
    Maximum Frame-Average Light : 452 cd/m2

    Audio #1
    ID                          : 2
    Format                      : AC-3
    Format/Info                 : Audio Coding 3
    Commercial name             : Dolby Digital
    Codec ID                    : A_AC3
    Duration                    : 1 h 43 min
    Bit rate mode               : Constant
    Bit rate                    : 448 kb/s
    Channel(s)                  : 6 channels
    Channel layout              : L R C LFE Ls Rs
    Sampling rate               : 48.0 kHz
    Frame rate                  : 31.250 FPS (1536 SPF)
    Compression mode            : Lossy
    Delay relative to video     : 1 s 0 ms
    Stream size                 : 331 MiB (2%)
    Language                    : Spanish
    Service kind                : Complete Main
    Default                     : Yes
    Forced                      : No

    Audio #2
    ID                          : 3
    Format                      : AC-3
    Format/Info                 : Audio Coding 3
    Commercial name             : Dolby Digital
    Codec ID                    : A_AC3
    Duration                    : 1 h 43 min
    Bit rate mode               : Constant
    Bit rate                    : 448 kb/s
    Channel(s)                  : 6 channels
    Channel layout              : L R C LFE Ls Rs
    Sampling rate               : 48.0 kHz
    Frame rate                  : 31.250 FPS (1536 SPF)
    Compression mode            : Lossy
    Delay relative to video     : 1 s 0 ms
    Stream size                 : 331 MiB (2%)
    Language                    : English
    Service kind                : Complete Main
    Default                     : No
    Forced                      : No

    Text
    ID                          : 4
    Format                      : UTF-8
    Codec ID                    : S_TEXT/UTF8
    Codec ID/Info               : UTF-8 Plain Text
    Duration                    : 1 h 34 min
    Bit rate                    : 37 b/s
    Frame rate                  : 0.121 FPS
    Count of elements           : 686
    Stream size                 : 25.9 KiB (0%)
    Language                    : Spanish
    Default                     : No
    Forced                      : No

    Menu
    00:00:00.000                : en:Chapter 01
    00:11:45.371                : en:Chapter 02
    00:18:07.753                : en:Chapter 03
    00:26:34.635                : en:Chapter 04
    00:38:04.991                : en:Chapter 05
    00:51:10.985                : en:Chapter 06
    00:59:56.968                : en:Chapter 07
    01:09:05.725                : en:Chapter 08
    01:18:46.096                : en:Chapter 09
    01:28:10.494                : en:Chapter 10
    01:35:03.197                : en:Chapter 11

     

  • Peso: 18.4 GiB

Sinopsis

Fantasía épica que adapta la serie «Avatar: The Last Airbender». La nación del Fuego declara la guerra a las naciones del Aire, el Agua y la Tierra. Tras un siglo de lucha, no hay esperanza alguna de acabar con tanta destrucción. Aang, el más reciente sucesor del ciclo del avatar, el único con poder para controlar los cuatro elementos, tendrá que viajar hasta el Polo Norte para dominarlos y poner fin a la guerra. En esta aventura se unen a él Katara, una Maestra Agua, y su hermano Sokka. Durante su viaje serán perseguidos por el príncipe Zuko, el cual intenta capturar al avatar para recuperar su honor…

Ficha técnica

Video trailer de la película

Enlaces de descarga

Rip de Bluray

Descargar The Last Airbender (2010) WEB-DL 4K HDR Latino – CMHDD




Aportes de DPeliculasHDmega la pass es:dpeliculashdmega.org Aportes de CinemaniaHD la pass es:cinemaniahdd.com Aportes recientes:cinemaniahdd.net
Guardado en : Acción , Aventura , Fantasía

Películas relacionadas

  • Dune: Parte dos (2024) WEB-DL 4K UHD HDR Latino

    Dune: Parte dos (2024) WEB-DL 4K UHD HDR Latino

    2024
    Dune: Parte dos (2024) WEB-DL 4K UHD HDR Latino

    2h 47m 2024

    Descargar Dune: Parte dos (2024) WEB-DL 4K UHD HDR Latino. Sigue el viaje mítico de Paul Atreides mientras...

    Director: Vera Janisch

    Género: 4K HDR

    Actores: Zouhair Elakkari

  • Dune: Parte dos (2024) AMZN WEB-DL 1080p Latino

    Dune: Parte dos (2024) AMZN WEB-DL 1080p Latino

    2024
    Dune: Parte dos (2024) AMZN WEB-DL 1080p Latino

    2h 47m 2024

    Descargar Dune: Parte dos (2024) AMZN WEB-DL 1080p Latino. Sigue el viaje mítico de Paul Atreides mientras...

    Director: Vera Janisch

    Género: Aventura

    Actores: Zouhair Elakkari

  • Godzilla vs. Kong (2021) REMUX 4K HDR Latino – CMHDD

    Godzilla vs. Kong (2021) REMUX 4K HDR Latino – CMHDD

    2021
    Godzilla vs. Kong (2021) REMUX 4K HDR Latino – CMHDD

    1h 54m 2021

    Godzilla y Kong, dos de las fuerzas más poderosas de un planeta habitado por todo tipo de aterradoras...

    Director: Thomas Robinson Harper

    Género: Acción

    Actores: Victoria Liu

descargar The Last Airbender (2010) WEB-DL 4K HDR Latino – CMHDD 4K HDR 1080p gratis, The Last Airbender (2010) WEB-DL 4K HDR Latino – CMHDD 4K HDR mega 1 link, The Last Airbender (2010) WEB-DL 4K HDR Latino – CMHDD 4K HDR pelicula completa, descargar The Last Airbender (2010) WEB-DL 4K HDR Latino – CMHDD 4K HDR gratis en mega.

The Last Airbender (2010) WEB-DL 4K HDR Latino – CMHDD pelicula full hd, The Last Airbender (2010) WEB-DL 4K HDR Latino – CMHDD mega latino, The Last Airbender (2010) WEB-DL 4K HDR Latino – CMHDD 4k latino, The Last Airbender (2010) WEB-DL 4K HDR Latino – CMHDD pelicula completa, The Last Airbender (2010) WEB-DL 4K HDR Latino – CMHDD descargar gratis, descargar The Last Airbender (2010) WEB-DL 4K HDR Latino – CMHDD pelicula latino, The Last Airbender (2010) WEB-DL 4K HDR Latino – CMHDD 1 link mega, The Last Airbender (2010) WEB-DL 4K HDR Latino – CMHDD 1 link google drive, The Last Airbender (2010) WEB-DL 4K HDR Latino – CMHDD hd 1080p latino.
Comentarios 0