×

¿Problemas para descargar con Mozilla, EDGE? Deshabilita la opción "Abrir vinculos en una pestaña nueva" tal como lo muestra ésta imagen.

La casa del lago (2006) REMUX 1080p Latino

272 vistas

Información de La casa del lago (2006) REMUX 1080p Latino

Datos de la película

  • Calidad: Full 1080p
  • Audio: Español Latino AC3 5.1 BLURAY - Ingles AC3 5.1 BLURAY
  • Subtitulos: Español Latino SRT - Ingles SRT
  • Resolución: 1920x1080p
  • Formato: MKV
  • Codec: H.264
  • Encoder: CinefiloCool
  • Mediainfo: Clic para Mostrar Datos Ver
  • La Casa Del Lago (2006) REMUX 1080p Latino-CMHDD.mkv
    Format                      : Matroska
    Format version              : Version 4
    File size                   : 10.8 GiB
    Duration                    : 1 h 38 min
    Overall bit rate            : 15.7 Mb/s
    Movie name                  : The Lake House (2006) CinemaniaHDD.Net
    Encoded date                : UTC 2021-01-29 07:34:57
    Writing application         : mkvmerge v51.0.0 ('I Wish') 64-bit
    Writing library             : libebml v1.4.0 + libmatroska v1.6.2
    Attachments                 : CINEMANIAHD.png

    Video
    ID                          : 1
    Format                      : VC-1
    Format profile              : Advanced@L3
    Codec ID                    : V_MS/VFW/FOURCC / WVC1
    Codec ID/Hint               : Microsoft
    Duration                    : 1 h 38 min
    Bit rate                    : 14.4 Mb/s
    Width                       : 1 920 pixels
    Height                      : 1 080 pixels
    Display aspect ratio        : 16:9
    Frame rate mode             : Constant
    Frame rate                  : 23.976 (24000/1001) FPS
    Color space                 : YUV
    Chroma subsampling          : 4:2:0
    Bit depth                   : 8 bits
    Scan type                   : Progressive
    Compression mode            : Lossy
    Bits/(Pixel*Frame)          : 0.290
    Stream size                 : 9.92 GiB (92%)
    Title                       : REMUX HD1080p [CinemaniaHDD]
    Default                     : Yes
    Forced                      : No

    Audio #1
    ID                          : 2
    Format                      : AC-3
    Format/Info                 : Audio Coding 3
    Commercial name             : Dolby Digital
    Codec ID                    : A_AC3
    Duration                    : 1 h 38 min
    Bit rate mode               : Constant
    Bit rate                    : 640 kb/s
    Channel(s)                  : 6 channels
    Channel layout              : L R C LFE Ls Rs
    Sampling rate               : 48.0 kHz
    Frame rate                  : 31.250 FPS (1536 SPF)
    Compression mode            : Lossy
    Stream size                 : 451 MiB (4%)
    Title                       : Español Latino [CinemaniaHDD]
    Language                    : Spanish
    Service kind                : Complete Main
    Default                     : Yes
    Forced                      : No

    Audio #2
    ID                          : 3
    Format                      : AC-3
    Format/Info                 : Audio Coding 3
    Commercial name             : Dolby Digital
    Codec ID                    : A_AC3
    Duration                    : 1 h 38 min
    Bit rate mode               : Constant
    Bit rate                    : 640 kb/s
    Channel(s)                  : 6 channels
    Channel layout              : L R C LFE Ls Rs
    Sampling rate               : 48.0 kHz
    Frame rate                  : 31.250 FPS (1536 SPF)
    Compression mode            : Lossy
    Stream size                 : 451 MiB (4%)
    Title                       : Ingles [CinemaniaHDD]
    Language                    : English
    Service kind                : Complete Main
    Default                     : No
    Forced                      : No

    Text #1
    ID                          : 4
    Format                      : UTF-8
    Codec ID                    : S_TEXT/UTF8
    Codec ID/Info               : UTF-8 Plain Text
    Duration                    : 1 h 24 min
    Bit rate                    : 0 b/s
    Count of elements           : 6
    Stream size                 : 159 Bytes (0%)
    Title                       : Forzados-SRT [CinemaniaHDD]
    Language                    : Spanish
    Default                     : Yes
    Forced                      : No

    Text #2
    ID                          : 5
    Format                      : UTF-8
    Codec ID                    : S_TEXT/UTF8
    Codec ID/Info               : UTF-8 Plain Text
    Duration                    : 1 h 31 min
    Bit rate                    : 52 b/s
    Count of elements           : 1070
    Stream size                 : 35.1 KiB (0%)
    Title                       : Español-SRT [CinemaniaHDD]
    Language                    : Spanish
    Default                     : No
    Forced                      : No

    Text #3
    ID                          : 6
    Format                      : UTF-8
    Codec ID                    : S_TEXT/UTF8
    Codec ID/Info               : UTF-8 Plain Text
    Duration                    : 1 h 31 min
    Bit rate                    : 56 b/s
    Count of elements           : 1334
    Stream size                 : 38.0 KiB (0%)
    Title                       : Ingles-SRT [CinemaniaHDD]
    Language                    : English
    Default                     : No
    Forced                      : No

    Menu
    00:00:00.000                : en:Credits
    00:03:35.381                : en:Workday Worlds
    00:07:38.291                : en:Misunderstandings
    00:13:18.130                : en:Family Reunion
    00:17:17.202                : en:Can This Be Happening?
    00:23:39.417                : en:Walking Together
    00:26:58.450                : en:Ways To Be Close
    00:32:44.629                : en:Incomplete
    00:36:40.364                : en:Glimpse of Kate
    00:40:25.422                : en:Metting Morgan
    00:45:45.743                : en:Birthday Party
    00:50:27.858                : en:Their Dance
    00:59:24.727                : en:Architect of The Year
    01:03:21.297                : en:Captivated by The Light
    01:09:23.993                : en:Broken Date
    01:13:14.890                : en:Let Me Let You Go
    01:15:48.544                : en:What Kate Wants
    01:20:21.483                : en:So In Unison
    01:24:50.752                : en:New Firm
    01:28:11.119                : en:Wait
    01:35:03.531                : en:End Credits

  • Peso: 10.8 GiB

Sinopsis

Descargar La casa del lago (2006) REMUX 1080p Latino. Acostumbrada a la tranquilidad de Illinois donde tiene su residencia, la Dra. Kate Forester (Sandra Bullock) se traslada a un ajetreado hospital de Chicago. Lo que más la duele es desprenderse de su preciosa casa de madera con unas enormes ventanas que dan al lago. Pero se la alquila a un desconocido, al que deja una nota pidiéndole que le reenvíe el correo a la nueva dirección. Alex Wyler (Keanu Reeves), el nuevo inquilino, es un frustrado arquitecto con mucho talento que tiene una conexión especial con la casa.

Ficha técnica

Video trailer de la película

Enlaces de descarga

Rip de Bluray

Descargar La casa del lago (2006) REMUX 1080p Latino




Aportes de DPeliculasHDmega la pass es:dpeliculashdmega.org Aportes de CinemaniaHD la pass es:cinemaniahdd.com
Guardado en : Drama , Misterio , Remux , Romance

Películas relacionadas

descargar La casa del lago (2006) REMUX 1080p Latino Full 1080p 1080p gratis, La casa del lago (2006) REMUX 1080p Latino Full 1080p mega 1 link, La casa del lago (2006) REMUX 1080p Latino Full 1080p pelicula completa, descargar La casa del lago (2006) REMUX 1080p Latino Full 1080p gratis en mega.

La casa del lago (2006) REMUX 1080p Latino pelicula full hd, La casa del lago (2006) REMUX 1080p Latino mega latino, La casa del lago (2006) REMUX 1080p Latino 4k latino, La casa del lago (2006) REMUX 1080p Latino pelicula completa, La casa del lago (2006) REMUX 1080p Latino descargar gratis, descargar La casa del lago (2006) REMUX 1080p Latino pelicula latino, La casa del lago (2006) REMUX 1080p Latino 1 link mega, La casa del lago (2006) REMUX 1080p Latino 1 link google drive, La casa del lago (2006) REMUX 1080p Latino hd 1080p latino.
Comentarios 0