×

¿Problemas para descargar con Mozilla, EDGE? Deshabilita la opción "Abrir vinculos en una pestaña nueva" tal como lo muestra ésta imagen.

The Lake (2022) Primera Temporada AMZN WEB-DL 1080p Latino

183 vistas

Información de The Lake (2022) Primera Temporada AMZN WEB-DL 1080p Latino

Datos de la película

  • Calidad: 1080p
  • Audio: Español Latino AC3 5.1 WEB-DL - Ingles AC3 5.1 WEB-DL
  • Subtitulos: Español Latino SRT- FORZADOS SRT
  • Resolución: 1920x1080
  • Formato: MKV
  • Codec: H.264
  • Encoder: cinemaniahdd
  • Mediainfo: Clic para Mostrar Datos Ver
  • The Lake T01E01 AMZN WEB-DL 1080p Latino [CNMNHDD].mkv
    Format                      : Matroska
    Format version              : Version 4
    File size                   : 2.30 GiB
    Duration                    : 34 min 22 s
    Overall bit rate            : 9 579 kb/s
    Movie name                  : The Lake S01E01 - TiltaGrrl [1080p] [CBR]
    Encoded date                : UTC 2022-06-17 02:28:55
    Writing application         : mkvmerge v56.1.0 ('My Friend') 64-bit
    Writing library             : libebml v1.4.2 + libmatroska v1.6.4

    Video
    ID                          : 1
    Format                      : AVC
    Format/Info                 : Advanced Video Codec
    Format profile              : High@L4
    Format settings             : CABAC / 4 Ref Frames
    Format settings, CABAC      : Yes
    Format settings, Reference  : 4 frames
    Codec ID                    : V_MPEG4/ISO/AVC
    Duration                    : 34 min 22 s
    Bit rate mode               : Constant
    Bit rate                    : 7 657 kb/s
    Nominal bit rate            : 10 000 kb/s
    Width                       : 1 920 pixels
    Height                      : 1 080 pixels
    Display aspect ratio        : 16:9
    Frame rate mode             : Constant
    Frame rate                  : 23.976 (24000/1001) FPS
    Color space                 : YUV
    Chroma subsampling          : 4:2:0
    Bit depth                   : 8 bits
    Scan type                   : Progressive
    Bits/(Pixel*Frame)          : 0.154
    Stream size                 : 1.84 GiB (80%)
    Title                       : CinemaniaHDD
    Default                     : Yes
    Forced                      : No
    Color range                 : Limited
    Color primaries             : BT.709
    Transfer characteristics    : BT.709
    Matrix coefficients         : BT.709

    Audio #1
    ID                          : 2
    Format                      : AC-3
    Format/Info                 : Audio Coding 3
    Commercial name             : Dolby Digital
    Codec ID                    : A_AC3
    Duration                    : 34 min 22 s
    Bit rate mode               : Constant
    Bit rate                    : 640 kb/s
    Channel(s)                  : 6 channels
    Channel layout              : L R C LFE Ls Rs
    Sampling rate               : 48.0 kHz
    Frame rate                  : 31.250 FPS (1536 SPF)
    Compression mode            : Lossy
    Stream size                 : 157 MiB (7%)
    Title                       : Español latino [CinemaniaHDD]
    Language                    : Spanish
    Service kind                : Complete Main
    Default                     : Yes
    Forced                      : No

    Audio #2
    ID                          : 3
    Format                      : E-AC-3
    Format/Info                 : Enhanced AC-3
    Commercial name             : Dolby Digital Plus
    Codec ID                    : A_EAC3
    Duration                    : 34 min 22 s
    Bit rate mode               : Constant
    Bit rate                    : 640 kb/s
    Channel(s)                  : 6 channels
    Channel layout              : L R C LFE Ls Rs
    Sampling rate               : 48.0 kHz
    Frame rate                  : 31.250 FPS (1536 SPF)
    Compression mode            : Lossy
    Stream size                 : 157 MiB (7%)
    Title                       : Español latino / E-AC3 [CinemaniaHDD]
    Language                    : Spanish
    Service kind                : Complete Main
    Default                     : No
    Forced                      : No

    Audio #3
    ID                          : 4
    Format                      : E-AC-3
    Format/Info                 : Enhanced AC-3
    Commercial name             : Dolby Digital Plus
    Codec ID                    : A_EAC3
    Duration                    : 34 min 22 s
    Bit rate mode               : Constant
    Bit rate                    : 640 kb/s
    Channel(s)                  : 6 channels
    Channel layout              : L R C LFE Ls Rs
    Sampling rate               : 48.0 kHz
    Frame rate                  : 31.250 FPS (1536 SPF)
    Compression mode            : Lossy
    Stream size                 : 157 MiB (7%)
    Title                       : Inglés [CinemaniaHDD]
    Language                    : English
    Service kind                : Complete Main
    Default                     : No
    Forced                      : No

    Text #1
    ID                          : 5
    Format                      : UTF-8
    Codec ID                    : S_TEXT/UTF8
    Codec ID/Info               : UTF-8 Plain Text
    Duration                    : 4 s 672 ms
    Bit rate                    : 46 b/s
    Count of elements           : 1
    Stream size                 : 27.0 Bytes (0%)
    Title                       : Forzados [CinemaniaHDD]
    Language                    : Spanish
    Default                     : No
    Forced                      : Yes

    Text #2
    ID                          : 6
    Format                      : UTF-8
    Codec ID                    : S_TEXT/UTF8
    Codec ID/Info               : UTF-8 Plain Text
    Duration                    : 33 min 13 s
    Bit rate                    : 74 b/s
    Count of elements           : 563
    Stream size                 : 18.2 KiB (0%)
    Title                       : Español latino [CinemaniaHDD]
    Language                    : Spanish
    Default                     : No
    Forced                      : No

    Menu
    00:00:00.000                : Amazon Original
    00:00:05.000                : Scene 2
    00:00:56.000                : Scene 3
    00:03:58.000                : Scene 4
    00:04:10.000                : Title Sequence
    00:04:17.000                : Scene 6
    00:05:45.000                : Scene 7
    00:06:57.000                : Scene 8
    00:10:54.000                : Scene 9
    00:13:09.000                : Scene 10
    00:15:06.000                : Scene 11
    00:17:13.000                : Scene 12
    00:19:58.000                : Scene 13
    00:21:33.000                : Scene 14
    00:25:27.000                : Scene 15
    00:26:58.000                : Scene 16
    00:30:01.000                : Scene 17
    00:32:24.000                : End Credits

     

  • Peso: 2.30 GiB Aprox ---- 19 GiB in 8 Chapters.

Sinopsis

El lago: Un nuevo comienzo cuenta la experiencia en una cabaña canadiense de Justin, un hombre de 35 años, divorciado y gay que trata de reconectar con Billie, la hija de 16 años que dio en adopción, mientras lucha contra su hermanastra Maisy-May por los derechos de la cabaña familiar.

Ficha técnica

  • Titulo original: The Lake
  • Fecha de lanzamiento: 16-06-2022 (US)
  • Género: Comedia

Video trailer de la película

Enlaces de descarga

Rip de Bluray

Descargar The Lake (2022) Primera Temporada AMZN WEB-DL 1080p Latino




Aportes de DPeliculasHDmega la pass es:dpeliculashdmega.org Aportes de CinemaniaHD la pass es:cinemaniahdd.com
Guardado en : Comedia

Películas relacionadas

descargar The Lake (2022) Primera Temporada AMZN WEB-DL 1080p Latino 1080p 1080p gratis, The Lake (2022) Primera Temporada AMZN WEB-DL 1080p Latino 1080p mega 1 link, The Lake (2022) Primera Temporada AMZN WEB-DL 1080p Latino 1080p pelicula completa, descargar The Lake (2022) Primera Temporada AMZN WEB-DL 1080p Latino 1080p gratis en mega.

The Lake (2022) Primera Temporada AMZN WEB-DL 1080p Latino pelicula full hd, The Lake (2022) Primera Temporada AMZN WEB-DL 1080p Latino mega latino, The Lake (2022) Primera Temporada AMZN WEB-DL 1080p Latino 4k latino, The Lake (2022) Primera Temporada AMZN WEB-DL 1080p Latino pelicula completa, The Lake (2022) Primera Temporada AMZN WEB-DL 1080p Latino descargar gratis, descargar The Lake (2022) Primera Temporada AMZN WEB-DL 1080p Latino pelicula latino, The Lake (2022) Primera Temporada AMZN WEB-DL 1080p Latino 1 link mega, The Lake (2022) Primera Temporada AMZN WEB-DL 1080p Latino 1 link google drive, The Lake (2022) Primera Temporada AMZN WEB-DL 1080p Latino hd 1080p latino.
Comentarios 0