×

¿Problemas para descargar con Mozilla, EDGE? Deshabilita la opción "Abrir vinculos en una pestaña nueva" tal como lo muestra ésta imagen.

The Lady and the Dale (2021) Temporada 1 HMAX WEB-DL 1080p Latino

233 vistas

Información de The Lady and the Dale (2021) Temporada 1 HMAX WEB-DL 1080p Latino

Datos de la película

  • Calidad: WEBDL
  • Audio: Español Latino AC3 2.0 WEB-DL - Ingles AC3 5.1 WEB-DL
  • Subtitulos: Español Latino SRT- FORZADOS SRT
  • Resolución: 1920x1080
  • Formato: MKV
  • Codec: H.264
  • Encoder: cinemaniahdd
  • Mediainfo: Clic para Mostrar Datos Ver
  • The Lady and the Dale T01E01 HMAX WEB-DL 1080p Latino [CNMNHDD].mkv
    Format                      : Matroska
    Format version              : Version 4
    File size                   : 3.47 GiB
    Duration                    : 55 min 20 s
    Overall bit rate mode       : Variable
    Overall bit rate            : 8 987 kb/s
    Movie name                  : The Lady and the Dale T01E01 - CinemaniaHDD.Net
    Encoded date                : UTC 2021-02-02 01:45:06
    Writing application         : mkvmerge v51.0.0 ('I Wish') 64-bit
    Writing library             : libebml v1.4.0 + libmatroska v1.6.2

    Video
    ID                          : 1
    Format                      : AVC
    Format/Info                 : Advanced Video Codec
    Format profile              : High@L4
    Format settings             : CABAC / 4 Ref Frames
    Format settings, CABAC      : Yes
    Format settings, Reference  : 4 frames
    Codec ID                    : V_MPEG4/ISO/AVC
    Duration                    : 55 min 20 s
    Bit rate mode               : Variable
    Bit rate                    : 8 217 kb/s
    Maximum bit rate            : 12.4 Mb/s
    Width                       : 1 920 pixels
    Height                      : 1 080 pixels
    Display aspect ratio        : 16:9
    Frame rate mode             : Constant
    Frame rate                  : 23.976 (24000/1001) FPS
    Color space                 : YUV
    Chroma subsampling          : 4:2:0
    Bit depth                   : 8 bits
    Scan type                   : Progressive
    Bits/(Pixel*Frame)          : 0.165
    Stream size                 : 3.18 GiB (91%)
    Title                       : CinemaniaHDD
    Language                    : English
    Default                     : Yes
    Forced                      : No
    Color range                 : Limited
    Color primaries             : BT.709
    Transfer characteristics    : BT.709
    Matrix coefficients         : BT.709

    Audio #1
    ID                          : 2
    Format                      : AC-3
    Format/Info                 : Audio Coding 3
    Commercial name             : Dolby Digital
    Codec ID                    : A_AC3
    Duration                    : 55 min 20 s
    Bit rate mode               : Constant
    Bit rate                    : 384 kb/s
    Channel(s)                  : 2 channels
    Channel layout              : L R
    Sampling rate               : 48.0 kHz
    Frame rate                  : 31.250 FPS (1536 SPF)
    Compression mode            : Lossy
    Stream size                 : 152 MiB (4%)
    Title                       : Español latino [CinemaniaHDD]
    Language                    : Spanish
    Service kind                : Complete Main
    Default                     : Yes
    Forced                      : No

    Audio #2
    ID                          : 3
    Format                      : AC-3
    Format/Info                 : Audio Coding 3
    Commercial name             : Dolby Digital
    Codec ID                    : A_AC3
    Duration                    : 55 min 20 s
    Bit rate mode               : Constant
    Bit rate                    : 384 kb/s
    Channel(s)                  : 6 channels
    Channel layout              : L R C LFE Ls Rs
    Sampling rate               : 48.0 kHz
    Frame rate                  : 31.250 FPS (1536 SPF)
    Compression mode            : Lossy
    Stream size                 : 152 MiB (4%)
    Title                       : Inglés [CinemaniaHDD]
    Language                    : English
    Service kind                : Complete Main
    Default                     : No
    Forced                      : No

    Text #1
    ID                          : 4
    Format                      : UTF-8
    Codec ID                    : S_TEXT/UTF8
    Codec ID/Info               : UTF-8 Plain Text
    Duration                    : 49 min 20 s
    Bit rate                    : 1 b/s
    Count of elements           : 19
    Stream size                 : 474 Bytes (0%)
    Title                       : Forzados [CinemaniaHDD]
    Language                    : Spanish
    Default                     : Yes
    Forced                      : Yes

    Text #2
    ID                          : 5
    Format                      : UTF-8
    Codec ID                    : S_TEXT/UTF8
    Codec ID/Info               : UTF-8 Plain Text
    Duration                    : 53 min 52 s
    Bit rate                    : 111 b/s
    Count of elements           : 1614
    Stream size                 : 43.8 KiB (0%)
    Title                       : Español latino [CC] [CinemaniaHDD]
    Language                    : Spanish
    Default                     : No
    Forced                      : No

    Text #3
    ID                          : 6
    Format                      : UTF-8
    Codec ID                    : S_TEXT/UTF8
    Codec ID/Info               : UTF-8 Plain Text
    Duration                    : 54 min 57 s
    Bit rate                    : 114 b/s
    Count of elements           : 1639
    Stream size                 : 46.1 KiB (0%)
    Title                       : Inglés [CC] [CinemaniaHDD]
    Language                    : English
    Default                     : No
    Forced                      : No

     

  • Peso: 3.47 GiB C/U --- 2 CAPITULOS AGREGADOS

Sinopsis

De los productores ganadores de un Emmy® Mark y Jay Duplass (Room 104), esta serie documental retrata el ascenso y eventual caída de la misteriosa empresaria Liz Carmichael, que aprovechó la crisis del petróleo de los años 70 para planear una audaz estafa automotriz con un innovador vehículo de bajo consumo.

2 CAPITULOS AGREGADOS

Ficha técnica

Video trailer de la película

Enlaces de descarga

Rip de Bluray

Descargar The Lady and the Dale (2021) Temporada 1 HMAX WEB-DL 1080p Latino




Aportes de DPeliculasHDmega la pass es:dpeliculashdmega.org Aportes de CinemaniaHD la pass es:cinemaniahdd.com
Guardado en : Documental , HBO , HBOMAX , Series

Películas relacionadas

descargar The Lady and the Dale (2021) Temporada 1 HMAX WEB-DL 1080p Latino WEBDL 1080p gratis, The Lady and the Dale (2021) Temporada 1 HMAX WEB-DL 1080p Latino WEBDL mega 1 link, The Lady and the Dale (2021) Temporada 1 HMAX WEB-DL 1080p Latino WEBDL serie completa, descargar The Lady and the Dale (2021) Temporada 1 HMAX WEB-DL 1080p Latino WEBDL gratis en mega.

The Lady and the Dale (2021) Temporada 1 HMAX WEB-DL 1080p Latino pelicula full hd, The Lady and the Dale (2021) Temporada 1 HMAX WEB-DL 1080p Latino mega latino, The Lady and the Dale (2021) Temporada 1 HMAX WEB-DL 1080p Latino 4k latino, The Lady and the Dale (2021) Temporada 1 HMAX WEB-DL 1080p Latino pelicula completa, The Lady and the Dale (2021) Temporada 1 HMAX WEB-DL 1080p Latino descargar gratis, descargar The Lady and the Dale (2021) Temporada 1 HMAX WEB-DL 1080p Latino pelicula latino, The Lady and the Dale (2021) Temporada 1 HMAX WEB-DL 1080p Latino 1 link mega, The Lady and the Dale (2021) Temporada 1 HMAX WEB-DL 1080p Latino 1 link google drive, The Lady and the Dale (2021) Temporada 1 HMAX WEB-DL 1080p Latino hd 1080p latino.
Comentarios 0