×

¿Problemas para descargar con Mozilla, EDGE? Deshabilita la opción "Abrir vinculos en una pestaña nueva" tal como lo muestra ésta imagen.

The Knick (2014-2015) [Serie Completa] WEB-DL 1080p Latino

1.693 vistas

Información de The Knick (2014-2015) [Serie Completa] WEB-DL 1080p Latino

Datos de la película

  • Calidad: 1080p
  • Audio: Español Latino AC3 2.0 WEB-DL - Ingles AC3 5.1 WEB-DL
  • Subtitulos: Español Latino SRT - Ingles SRT
  • Resolución: 1920x1080
  • Formato: MKV
  • Codec: H.264
  • Encoder: cinemaniahdd
  • Mediainfo: Clic para Mostrar Datos Ver
  • The Knick T02E10 WEB-DL 1080p Latino [CNMNHDD].mkv
    Format                      : Matroska
    Format version              : Version 4
    File size                   : 3.52 GiB
    Duration                    : 56 min 1 s
    Overall bit rate mode       : Variable
    Overall bit rate            : 8 988 kb/s
    Movie name                  : The Knick T02E10 - CinemaniaHDD.Net
    Encoded date                : UTC 2021-10-04 05:08:46
    Writing application         : mkvmerge v59.0.0 ('Shining Star') 64-bit
    Writing library             : libebml v1.4.2 + libmatroska v1.6.4

    Video
    ID                          : 1
    Format                      : AVC
    Format/Info                 : Advanced Video Codec
    Format profile              : High@L4
    Format settings             : CABAC / 4 Ref Frames
    Format settings, CABAC      : Yes
    Format settings, Reference  : 4 frames
    Codec ID                    : V_MPEG4/ISO/AVC
    Duration                    : 56 min 1 s
    Bit rate mode               : Variable
    Bit rate                    : 8 217 kb/s
    Maximum bit rate            : 12.4 Mb/s
    Width                       : 1 920 pixels
    Height                      : 1 080 pixels
    Display aspect ratio        : 16:9
    Frame rate mode             : Constant
    Frame rate                  : 23.976 (24000/1001) FPS
    Color space                 : YUV
    Chroma subsampling          : 4:2:0
    Bit depth                   : 8 bits
    Scan type                   : Progressive
    Bits/(Pixel*Frame)          : 0.165
    Stream size                 : 3.22 GiB (91%)
    Title                       : CinemaniaHDD
    Default                     : Yes
    Forced                      : No
    Color range                 : Limited
    Color primaries             : BT.709
    Transfer characteristics    : BT.709
    Matrix coefficients         : BT.709

    Audio #1
    ID                          : 2
    Format                      : AC-3
    Format/Info                 : Audio Coding 3
    Commercial name             : Dolby Digital
    Codec ID                    : A_AC3
    Duration                    : 56 min 1 s
    Bit rate mode               : Constant
    Bit rate                    : 384 kb/s
    Channel(s)                  : 2 channels
    Channel layout              : L R
    Sampling rate               : 48.0 kHz
    Frame rate                  : 31.250 FPS (1536 SPF)
    Compression mode            : Lossy
    Stream size                 : 154 MiB (4%)
    Title                       : Español latino [CinemaniaHDD]
    Language                    : Spanish
    Service kind                : Complete Main
    Default                     : Yes
    Forced                      : No

    Audio #2
    ID                          : 3
    Format                      : AC-3
    Format/Info                 : Audio Coding 3
    Commercial name             : Dolby Digital
    Codec ID                    : A_AC3
    Duration                    : 56 min 1 s
    Bit rate mode               : Constant
    Bit rate                    : 384 kb/s
    Channel(s)                  : 6 channels
    Channel layout              : L R C LFE Ls Rs
    Sampling rate               : 48.0 kHz
    Frame rate                  : 31.250 FPS (1536 SPF)
    Compression mode            : Lossy
    Stream size                 : 154 MiB (4%)
    Title                       : Inglés [CinemaniaHDD]
    Language                    : English
    Service kind                : Complete Main
    Default                     : No
    Forced                      : No

    Text #1
    ID                          : 4
    Format                      : UTF-8
    Codec ID                    : S_TEXT/UTF8
    Codec ID/Info               : UTF-8 Plain Text
    Duration                    : 55 min 50 s
    Bit rate                    : 61 b/s
    Count of elements           : 1305
    Stream size                 : 25.3 KiB (0%)
    Title                       : Español latino [CC] [CinemaniaHDD]
    Language                    : Spanish
    Default                     : No
    Forced                      : No

    Text #2
    ID                          : 5
    Format                      : UTF-8
    Codec ID                    : S_TEXT/UTF8
    Codec ID/Info               : UTF-8 Plain Text
    Duration                    : 53 min 54 s
    Bit rate                    : 60 b/s
    Count of elements           : 1287
    Stream size                 : 23.9 KiB (0%)
    Title                       : Inglés [CC] [CinemaniaHDD]
    Language                    : English
    Default                     : No
    Forced                      : No

     

  • Peso: 3.52 GiB Aprox ---- 67 GiB in 20 Chapters.

Sinopsis

Serie de TV (2014-2015). 2 temporadas. 20 episodios. Ambientada en el Nueva York de 1900, ‘The Knick’ se adentra en los pasillos del hospital Knickerbocker de Nueva York, donde el prestigioso cirujano Dr. John W. Thackery, pese a su secreta adicción a la cocaína, lidera un equipo de médicos con el que no duda en sobrepasar los límites de la ética y la moral de su época en favor de la investigación científica. Un adelantado a su tiempo, cuestionado en una sociedad conservadora que aún no ha descubierto los antibióticos y afronta las más altas tasas de mortalidad. Por otro lado la llegada del Dr. Algernon Edwards, un médico de color decidido y con gran talento, cambiará muchas cosas en el hospital.

Ficha técnica

Video trailer de la película

Enlaces de descarga

Rip de Bluray

Descargar The Knick (2014-2015) [Serie Completa] WEB-DL 1080p Latino




Aportes de DPeliculasHDmega la pass es:dpeliculashdmega.org Aportes de CinemaniaHD la pass es:cinemaniahdd.com
Guardado en : Drama , Series

Películas relacionadas

descargar The Knick (2014-2015) [Serie Completa] WEB-DL 1080p Latino 1080p 1080p gratis, The Knick (2014-2015) [Serie Completa] WEB-DL 1080p Latino 1080p mega 1 link, The Knick (2014-2015) [Serie Completa] WEB-DL 1080p Latino 1080p serie completa, descargar The Knick (2014-2015) [Serie Completa] WEB-DL 1080p Latino 1080p gratis en mega.

The Knick (2014-2015) [Serie Completa] WEB-DL 1080p Latino pelicula full hd, The Knick (2014-2015) [Serie Completa] WEB-DL 1080p Latino mega latino, The Knick (2014-2015) [Serie Completa] WEB-DL 1080p Latino 4k latino, The Knick (2014-2015) [Serie Completa] WEB-DL 1080p Latino pelicula completa, The Knick (2014-2015) [Serie Completa] WEB-DL 1080p Latino descargar gratis, descargar The Knick (2014-2015) [Serie Completa] WEB-DL 1080p Latino pelicula latino, The Knick (2014-2015) [Serie Completa] WEB-DL 1080p Latino 1 link mega, The Knick (2014-2015) [Serie Completa] WEB-DL 1080p Latino 1 link google drive, The Knick (2014-2015) [Serie Completa] WEB-DL 1080p Latino hd 1080p latino.
Comentarios 0