×

¿Problemas para descargar con Mozilla, EDGE? Deshabilita la opción "Abrir vinculos en una pestaña nueva" tal como lo muestra ésta imagen.

El discurso del Rey (2010) Full HD 1080p Latino

394 vistas

Información de El discurso del Rey (2010) Full HD 1080p Latino

Datos de la película

  • Calidad: Full 1080p
  • Audio: Se especifica abajo de la Sinopsis
  • Subtitulos: Español Latino SRT- FORZADOS SRT
  • Resolución: 1920x1080p
  • Formato: MKV
  • Codec: H.264
  • Encoder: CinefiloCool
  • Mediainfo: Clic para Mostrar Datos Ver
  • El Discurso Del Rey (2010) Full HD 1080p Latino-CMHDD.mkv Format                      : Matroska Format version              : Version 4 File size                   : 7.66 GiB Duration                    : 1 h 58 min Overall bit rate            : 9 257 kb/s Movie name                  : The King's Speech (2010) Encoded date                : UTC 2023-02-07 00:26:05 Writing application         : mkvmerge v56.1.0 ('My Friend') 64-bit Writing library             : libebml v1.4.2 + libmatroska v1.6.4 Attachments                 : CINEMANIAHD.png Video ID                          : 1 Format                      : AVC Format/Info                 : Advanced Video Codec Format profile              : High@L4.1 Format settings             : CABAC / 4 Ref Frames Format settings, CABAC      : Yes Format settings, Reference  : 4 frames Codec ID                    : V_MPEG4/ISO/AVC Duration                    : 1 h 58 min Bit rate                    : 6 836 kb/s Width                       : 1 920 pixels Height                      : 1 080 pixels Display aspect ratio        : 16:9 Frame rate mode             : Constant Frame rate                  : 23.976 (24000/1001) FPS Color space                 : YUV Chroma subsampling          : 4:2:0 Bit depth                   : 8 bits Scan type                   : Progressive Bits/(Pixel*Frame)          : 0.137 Stream size                 : 5.66 GiB (74%) Title                       : Full HD1080p [CinemaniaHDD] Writing library             : x264 core 163 r3059 b684ebe0 Encoding settings           : cabac=1 / ref=4 / deblock=1:-1:-1 / analyse=0x3:0x133 / me=tesa / subme=11 / psy=1 / psy_rd=1.00:0.15 / mixed_ref=1 / me_range=24 / chroma_me=1 / trellis=2 / 8x8dct=1 / cqm=0 / deadzone=21,11 / fast_pskip=0 / chroma_qp_offset=-3 / threads=24 / lookahead_threads=6 / sliced_threads=0 / nr=0 / decimate=1 / interlaced=0 / bluray_compat=0 / constrained_intra=0 / bframes=16 / b_pyramid=2 / b_adapt=2 / b_bias=0 / direct=3 / weightb=1 / open_gop=0 / weightp=2 / keyint=240 / keyint_min=24 / scenecut=40 / intra_refresh=0 / rc_lookahead=60 / rc=crf / mbtree=1 / crf=20.0 / qcomp=0.60 / qpmin=0 / qpmax=69 / qpstep=4 / vbv_maxrate=62500 / vbv_bufsize=78125 / crf_max=0.0 / nal_hrd=none / filler=0 / ip_ratio=1.40 / aq=1:1.00 Default                     : Yes Forced                      : Yes Color range                 : Limited Color primaries             : BT.709 Transfer characteristics    : BT.709 Matrix coefficients         : BT.709 Audio #1 ID                          : 2 Format                      : AC-3 Format/Info                 : Audio Coding 3 Commercial name             : Dolby Digital Codec ID                    : A_AC3 Duration                    : 1 h 58 min Bit rate mode               : Constant Bit rate                    : 448 kb/s Channel(s)                  : 6 channels Channel layout              : L R C LFE Ls Rs Sampling rate               : 48.0 kHz Frame rate                  : 31.250 FPS (1536 SPF) Compression mode            : Lossy Stream size                 : 380 MiB (5%) Title                       : Español Latino ReDub v3 [CinemaniaHDD] Language                    : Spanish Service kind                : Complete Main Default                     : Yes Forced                      : Yes Audio #2 ID                          : 3 Format                      : AC-3 Format/Info                 : Audio Coding 3 Commercial name             : Dolby Digital Codec ID                    : A_AC3 Duration                    : 1 h 58 min Bit rate mode               : Constant Bit rate                    : 448 kb/s Channel(s)                  : 6 channels Channel layout              : L R C LFE Ls Rs Sampling rate               : 48.0 kHz Frame rate                  : 31.250 FPS (1536 SPF) Compression mode            : Lossy Stream size                 : 380 MiB (5%) Title                       : Español Latino ORG ZIMA [CinemaniaHDD] Language                    : Spanish Service kind                : Complete Main Default                     : No Forced                      : No Audio #3 ID                          : 4 Format                      : DTS Format/Info                 : Digital Theater Systems Codec ID                    : A_DTS Duration                    : 1 h 58 min Bit rate mode               : Constant Bit rate                    : 1 509 kb/s Channel(s)                  : 6 channels Channel layout              : C L R Ls Rs LFE Sampling rate               : 48.0 kHz Frame rate                  : 93.750 FPS (512 SPF) Bit depth                   : 24 bits Compression mode            : Lossy Stream size                 : 1.25 GiB (16%) Title                       : Ingles [CinemaniaHDD] Language                    : English Default                     : No Forced                      : No Text #1 ID                          : 5 Format                      : UTF-8 Codec ID                    : S_TEXT/UTF8 Codec ID/Info               : UTF-8 Plain Text Duration                    : 1 h 36 min Bit rate                    : 0 b/s Count of elements           : 9 Stream size                 : 293 Bytes (0%) Title                       : Forzados-SRT [CinemaniaHDD] Language                    : Spanish Default                     : Yes Forced                      : Yes Text #2 ID                          : 6 Format                      : UTF-8 Codec ID                    : S_TEXT/UTF8 Codec ID/Info               : UTF-8 Plain Text Duration                    : 1 h 51 min Bit rate                    : 58 b/s Count of elements           : 1406 Stream size                 : 48.0 KiB (0%) Title                       : Español-SRT [CinemaniaHDD] Language                    : Spanish Default                     : No Forced                      : No Text #3 ID                          : 7 Format                      : PGS Muxing mode                 : zlib Codec ID                    : S_HDMV/PGS Codec ID/Info               : Picture based subtitle format used on BDs/HD-DVDs Duration                    : 1 h 49 min Bit rate                    : 46.2 kb/s Count of elements           : 2848 Stream size                 : 36.2 MiB (0%) Title                       : Ingles-PGS [CinemaniaHDD] Language                    : English Default                     : No Forced                      : No Menu 00:00:00.000                : :00:00:00.000 00:05:00.008                : :00:05:00.000 00:10:00.016                : :00:10:00.000 00:15:00.024                : :00:15:00.000 00:20:00.157                : :00:20:00.000 00:25:00.165                : :00:25:00.000 00:30:00.007                : :00:30:00.000 00:35:00.015                : :00:35:00.000 00:40:00.023                : :00:40:00.000 00:45:00.072                : :00:45:00.000 00:50:00.080                : :00:50:00.000 00:55:00.005                : :00:55:00.000 01:00:00.013                : :01:00:00.000 01:05:00.021                : :01:05:00.000 01:10:00.029                : :01:10:00.000 01:15:00.037                : :01:15:00.000 01:20:00.004                : :01:20:00.000 01:25:00.012                : :01:25:00.000 01:30:00.020                : :01:30:00.000 01:35:00.153                : :01:35:00.000 01:40:00.077                : :01:40:00.000 01:45:00.002                : :01:45:00.000 01:50:00.010                : :01:50:00.000 01:55:00.018                : :01:55:00.000
  • Peso: 7.66 GiB

Sinopsis

Descargar El discurso del Rey (2010) Full HD 1080p Latino. El duque de York se convirtió en rey de Gran Bretaña con el nombre de Jorge VI (1936-1952), tras la abdicación de su hermano mayor Eduardo VIII. Su tartamudez, que constituía un gran inconveniente para el ejercicio de sus funciones, lo llevó a buscar la ayuda de Lionel Logue, un experto logopeda, que consiguió, aplicando una serie de técnicas poco ortodoxas, eliminar este defecto del rey.

Audio Español Latino AC3 5.1 Dub Org ZIMA – AC3 5.1 ReDub 3ra Version – Ingles DTS 5.1 Bluray

Ficha técnica

Video trailer de la película

Enlaces de descarga

Rip de Bluray

Descargar El discurso del Rey (2010) Full HD 1080p Latino




Aportes de DPeliculasHDmega la pass es:dpeliculashdmega.org Aportes de CinemaniaHD la pass es:cinemaniahdd.com Aportes recientes:cinemaniahdd.net

Películas relacionadas

descargar El discurso del Rey (2010) Full HD 1080p Latino Full 1080p 1080p gratis, El discurso del Rey (2010) Full HD 1080p Latino Full 1080p mega 1 link, El discurso del Rey (2010) Full HD 1080p Latino Full 1080p pelicula completa, descargar El discurso del Rey (2010) Full HD 1080p Latino Full 1080p gratis en mega.

El discurso del Rey (2010) Full HD 1080p Latino pelicula full hd, El discurso del Rey (2010) Full HD 1080p Latino mega latino, El discurso del Rey (2010) Full HD 1080p Latino 4k latino, El discurso del Rey (2010) Full HD 1080p Latino pelicula completa, El discurso del Rey (2010) Full HD 1080p Latino descargar gratis, descargar El discurso del Rey (2010) Full HD 1080p Latino pelicula latino, El discurso del Rey (2010) Full HD 1080p Latino 1 link mega, El discurso del Rey (2010) Full HD 1080p Latino 1 link google drive, El discurso del Rey (2010) Full HD 1080p Latino hd 1080p latino.
Comentarios 0