×

¿Problemas para descargar con Mozilla, EDGE? Deshabilita la opción "Abrir vinculos en una pestaña nueva" tal como lo muestra ésta imagen.

The King’s Man (2021) REMUX 4K HDR Latino – CMHDD

313 vistas

Información de The King’s Man (2021) REMUX 4K HDR Latino – CMHDD

Datos de la película

  • Calidad: 4K HDR
  • Audio: Se especifica abajo de la Sinopsis
  • Subtitulos: Español Latino PGS
  • Resolución: 3840x2160p
  • Formato: MKV
  • Codec: H.264
  • Encoder: Dracarys
  • Mediainfo: Clic para Mostrar Datos Ver
  • Format                      : Matroska
    Format version              : Version 4
    File size                   : 52.5 GiB
    Duration                    : 2 h 10 min
    Overall bit rate mode       : Variable
    Overall bit rate            : 57.5 Mb/s
    Movie name                  : The King's Man (2021) REMUX 4K HDR Latino - CMHDD
    Encoded date                : UTC 2022-04-14 00:39:52
    Writing application         : mkvmerge v17.0.0 ('Be Ur Friend') 64-bit
    Writing library             : libebml v1.3.5 + libmatroska v1.4.8

    Video
    ID                          : 1
    Format                      : HEVC
    Format/Info                 : High Efficiency Video Coding
    Format profile              : Main 10@L5.1@High
    HDR format                  : SMPTE ST 2086, HDR10 compatible
    Codec ID                    : V_MPEGH/ISO/HEVC
    Duration                    : 2 h 10 min
    Bit rate                    : 48.2 Mb/s
    Width                       : 3 840 pixels
    Height                      : 2 160 pixels
    Display aspect ratio        : 16:9
    Frame rate mode             : Constant
    Frame rate                  : 23.976 (24000/1001) FPS
    Color space                 : YUV
    Chroma subsampling          : 4:2:0 (Type 2)
    Bit depth                   : 10 bits
    Bits/(Pixel*Frame)          : 0.242
    Stream size                 : 44.0 GiB (84%)
    Default                     : Yes
    Forced                      : No
    Color range                 : Limited
    Color primaries             : BT.2020
    Transfer characteristics    : PQ
    Matrix coefficients         : BT.2020 non-constant
    Mastering display color pri : Display P3
    Mastering display luminance : min: 0.0050 cd/m2, max: 1000 cd/m2

    Audio #1
    ID                          : 2
    Format                      : MLP FBA 16-ch
    Format/Info                 : Meridian Lossless Packing FBA with 16-channel presentation
    Commercial name             : Dolby TrueHD with Dolby Atmos
    Codec ID                    : A_TRUEHD
    Duration                    : 2 h 10 min
    Bit rate mode               : Variable
    Bit rate                    : 7 586 kb/s
    Maximum bit rate            : 12.5 Mb/s
    Channel(s)                  : 8 channels
    Channel layout              : L R C LFE Ls Rs Lb Rb
    Sampling rate               : 48.0 kHz
    Frame rate                  : 1 200.000 FPS (40 SPF)
    Compression mode            : Lossless
    Stream size                 : 6.92 GiB (13%)
    Language                    : English
    Default                     : No
    Forced                      : No
    Number of dynamic objects   : 13
    Bed channel count           : 1 channel
    Bed channel configuration   : LFE

    Audio #2
    ID                          : 3
    Format                      : AC-3
    Format/Info                 : Audio Coding 3
    Commercial name             : Dolby Digital
    Codec ID                    : A_AC3
    Duration                    : 2 h 10 min
    Bit rate mode               : Constant
    Bit rate                    : 640 kb/s
    Channel(s)                  : 6 channels
    Channel layout              : L R C LFE Ls Rs
    Sampling rate               : 48.0 kHz
    Frame rate                  : 31.250 FPS (1536 SPF)
    Compression mode            : Lossy
    Stream size                 : 598 MiB (1%)
    Language                    : English
    Service kind                : Complete Main
    Default                     : No
    Forced                      : No

    Audio #3
    ID                          : 4
    Format                      : E-AC-3
    Format/Info                 : Enhanced AC-3
    Commercial name             : Dolby Digital Plus
    Format profile              : Blu-ray Disc
    Codec ID                    : A_EAC3
    Duration                    : 2 h 10 min
    Bit rate mode               : Constant
    Bit rate                    : 1 024 kb/s
    Channel(s)                  : 6 channels
    Channel(s)_Original         : 8 channels
    ChannelLayout_Original      : L R C LFE Ls Rs Lrs Rrs
    Sampling rate               : 48.0 kHz
    Frame rate                  : 31.250 FPS (1536 SPF)
    Compression mode            : Lossy
    Stream size                 : 957 MiB (2%)
    Language                    : Spanish
    Service kind                : Complete Main
    Default                     : Yes
    Forced                      : No

    Text #1
    ID                          : 5
    Format                      : PGS
    Muxing mode                 : zlib
    Codec ID                    : S_HDMV/PGS
    Codec ID/Info               : Picture based subtitle format used on BDs/HD-DVDs
    Duration                    : 2 h 3 min
    Bit rate                    : 34.3 kb/s
    Count of elements           : 2652
    Stream size                 : 30.3 MiB (0%)
    Language                    : Spanish
    Default                     : No
    Forced                      : No

    Text #2
    ID                          : 6
    Format                      : PGS
    Muxing mode                 : zlib
    Codec ID                    : S_HDMV/PGS
    Codec ID/Info               : Picture based subtitle format used on BDs/HD-DVDs
    Duration                    : 1 h 6 min
    Bit rate                    : 429 b/s
    Count of elements           : 18
    Stream size                 : 209 KiB (0%)
    Language                    : Spanish
    Default                     : No
    Forced                      : No

    Menu
    00:00:00.000                : en:Chapter 1
    00:07:23.985                : en:Chapter 2
    00:11:07.375                : en:Chapter 3
    00:14:37.793                : en:Chapter 4
    00:19:03.183                : en:Chapter 5
    00:20:50.290                : en:Chapter 6
    00:28:24.285                : en:Chapter 7
    00:31:09.284                : en:Chapter 8
    00:34:30.860                : en:Chapter 9
    00:38:11.289                : en:Chapter 10
    00:42:02.853                : en:Chapter 11
    00:47:19.378                : en:Chapter 12
    00:58:30.924                : en:Chapter 13
    00:59:12.799                : en:Chapter 14
    01:02:24.907                : en:Chapter 15
    01:05:22.585                : en:Chapter 16
    01:07:16.449                : en:Chapter 17
    01:09:08.853                : en:Chapter 18
    01:13:53.387                : en:Chapter 19
    01:26:49.996                : en:Chapter 20
    01:33:11.335                : en:Chapter 21
    01:36:39.001                : en:Chapter 22
    01:39:39.014                : en:Chapter 23
    01:44:25.676                : en:Chapter 24
    01:48:28.960                : en:Chapter 25
    01:58:04.535                : en:Chapter 26
    02:01:58.853                : en:Chapter 27

  • Peso:

Sinopsis

Cuando un grupo formado por los tiranos y las mentes criminales más malvadas de la historia se une para desencadenar una guerra que matará a millones de personas, un hombre tendrá que luchar a contrarreloj para detenerlos. Tercera entrega de la saga ‘Kingsman’, ambientada muchos años antes de las anteriores y explicando el origen de la agencia.

 

Latino: E-Ac3 7.1  –  Inglés: TrueHD 7.1

Ficha técnica

Video trailer de la película

Enlaces de descarga

Rip de Bluray

Descargar The King’s Man (2021) REMUX 4K HDR Latino – CMHDD


Aportes de DPeliculasHDmega la pass es:dpeliculashdmega.org Aportes de CinemaniaHD la pass es:cinemaniahdd.com
Guardado en : Acción , Aventura , Bélica , Misterio , Suspenso

Películas relacionadas

descargar The King’s Man (2021) REMUX 4K HDR Latino – CMHDD 4K HDR 1080p gratis, The King’s Man (2021) REMUX 4K HDR Latino – CMHDD 4K HDR mega 1 link, The King’s Man (2021) REMUX 4K HDR Latino – CMHDD 4K HDR pelicula completa, descargar The King’s Man (2021) REMUX 4K HDR Latino – CMHDD 4K HDR gratis en mega.

The King’s Man (2021) REMUX 4K HDR Latino – CMHDD pelicula full hd, The King’s Man (2021) REMUX 4K HDR Latino – CMHDD mega latino, The King’s Man (2021) REMUX 4K HDR Latino – CMHDD 4k latino, The King’s Man (2021) REMUX 4K HDR Latino – CMHDD pelicula completa, The King’s Man (2021) REMUX 4K HDR Latino – CMHDD descargar gratis, descargar The King’s Man (2021) REMUX 4K HDR Latino – CMHDD pelicula latino, The King’s Man (2021) REMUX 4K HDR Latino – CMHDD 1 link mega, The King’s Man (2021) REMUX 4K HDR Latino – CMHDD 1 link google drive, The King’s Man (2021) REMUX 4K HDR Latino – CMHDD hd 1080p latino.
Comentarios 0