×

¿Problemas para descargar con Mozilla, EDGE? Deshabilita la opción "Abrir vinculos en una pestaña nueva" tal como lo muestra ésta imagen.

El Arte De Ser Adulto (2020) PLACEBO Full HD 1080p Latino

251 vistas

Información de El Arte De Ser Adulto (2020) PLACEBO Full HD 1080p Latino

Datos de la película

  • Calidad: Full 1080p
  • Audio: Español Latino AC3 2.0 DVD - Ingles AC3 5.1 BLURAY
  • Subtitulos: Español Latino PGS - Ingles PGS
  • Resolución: 1920x1080p
  • Formato: MKV
  • Codec: H.264
  • Encoder: Melkor
  • Mediainfo: Clic para Mostrar Datos Ver
  • El Arte De Ser Adulto (2020) PLACEBO Full HD 1080p Latino.mkv
    Format                      : Matroska
    Format version              : Version 4
    File size                   : 6.15 GiB
    Duration                    : 2 h 17 min
    Overall bit rate            : 6 412 kb/s
    Movie name                  : The King Of Staten Island (2020) CinemaniaHDD.Net
    Encoded date                : UTC 2020-08-20 04:42:03
    Writing application         : mkvmerge v46.0.0 ('No Deeper Escape') 64-bit
    Writing library             : libebml v1.3.10 + libmatroska v1.5.2
    Attachments                 : CINEMANIAHD.png

    Video
    ID                          : 1
    Format                      : AVC
    Format/Info                 : Advanced Video Codec
    Format profile              : High@L4.1
    Format settings             : CABAC / 4 Ref Frames
    Format settings, CABAC      : Yes
    Format settings, Reference  : 4 frames
    Codec ID                    : V_MPEG4/ISO/AVC
    Duration                    : 2 h 17 min
    Bit rate                    : 5 639 kb/s
    Width                       : 1 920 pixels
    Height                      : 1 080 pixels
    Display aspect ratio        : 16:9
    Frame rate mode             : Constant
    Frame rate                  : 23.976 (24000/1001) FPS
    Color space                 : YUV
    Chroma subsampling          : 4:2:0
    Bit depth                   : 8 bits
    Scan type                   : Progressive
    Bits/(Pixel*Frame)          : 0.113
    Stream size                 : 5.41 GiB (88%)
    Title                       : Full HD1080p [CinemaniaHDD]
    Writing library             : x264 core 157 r2935 545de2f
    Encoding settings           : cabac=1 / ref=4 / deblock=1:0:0 / analyse=0x3:0x133 / me=tesa / subme=11 / psy=1 / psy_rd=1.00:0.00 / mixed_ref=1 / me_range=24 / chroma_me=1 / trellis=2 / 8x8dct=1 / cqm=0 / deadzone=21,11 / fast_pskip=0 / chroma_qp_offset=-2 / threads=24 / lookahead_threads=6 / sliced_threads=0 / nr=0 / decimate=1 / interlaced=0 / bluray_compat=0 / constrained_intra=0 / bframes=16 / b_pyramid=2 / b_adapt=2 / b_bias=0 / direct=3 / weightb=1 / open_gop=0 / weightp=2 / keyint=240 / keyint_min=24 / scenecut=40 / intra_refresh=0 / rc_lookahead=60 / rc=crf / mbtree=1 / crf=20.0 / qcomp=0.60 / qpmin=0 / qpmax=69 / qpstep=4 / vbv_maxrate=62500 / vbv_bufsize=78125 / crf_max=0.0 / nal_hrd=none / filler=0 / ip_ratio=1.40 / aq=1:1.00
    Default                     : Yes
    Forced                      : Yes
    Color range                 : Limited
    Color primaries             : BT.709
    Transfer characteristics    : BT.709
    Matrix coefficients         : BT.709

    Audio #1
    ID                          : 2
    Format                      : AC-3
    Format/Info                 : Audio Coding 3
    Commercial name             : Dolby Digital
    Codec ID                    : A_AC3
    Duration                    : 2 h 17 min
    Bit rate mode               : Constant
    Bit rate                    : 256 kb/s
    Channel(s)                  : 2 channels
    Channel layout              : L R
    Sampling rate               : 48.0 kHz
    Frame rate                  : 31.250 FPS (1536 SPF)
    Compression mode            : Lossy
    Stream size                 : 251 MiB (4%)
    Title                       : Español Latino [CinemaniaHDD]
    Language                    : Spanish
    Service kind                : Complete Main
    Default                     : Yes
    Forced                      : No

    Audio #2
    ID                          : 3
    ID in the original source m : 4352 (0x1100)
    Format                      : AC-3
    Format/Info                 : Audio Coding 3
    Commercial name             : Dolby Digital
    Codec ID                    : A_AC3
    Duration                    : 2 h 17 min
    Bit rate mode               : Constant
    Bit rate                    : 448 kb/s
    Channel(s)                  : 6 channels
    Channel layout              : L R C LFE Ls Rs
    Sampling rate               : 48.0 kHz
    Frame rate                  : 31.250 FPS (1536 SPF)
    Compression mode            : Lossy
    Stream size                 : 440 MiB (7%)
    Title                       : Ingles AC3 [CinemaniaHDD]
    Language                    : English
    Service kind                : Complete Main
    Default                     : No
    Forced                      : No
    Original source medium      : Blu-ray

    Text #1
    ID                          : 4
    ID in the original source m : 4609 (0x1201)
    Format                      : PGS
    Muxing mode                 : zlib
    Codec ID                    : S_HDMV/PGS
    Codec ID/Info               : Picture based subtitle format used on BDs/HD-DVDs
    Duration                    : 2 h 15 min
    Bit rate                    : 61.5 kb/s
    Count of elements           : 5196
    Stream size                 : 59.7 MiB (1%)
    Title                       : Español-PGS [CinemaniaHDD]
    Language                    : Spanish
    Default                     : No
    Forced                      : No
    Original source medium      : Blu-ray

    Text #2
    ID                          : 5
    ID in the original source m : 4608 (0x1200)
    Format                      : PGS
    Muxing mode                 : zlib
    Codec ID                    : S_HDMV/PGS
    Codec ID/Info               : Picture based subtitle format used on BDs/HD-DVDs
    Duration                    : 2 h 12 min
    Bit rate                    : 73.0 kb/s
    Count of elements           : 5590
    Stream size                 : 69.4 MiB (1%)
    Title                       : Ingles-PGS [CinemaniaHDD]
    Language                    : English
    Default                     : No
    Forced                      : No
    Original source medium      : Blu-ray

    Text #3
    ID                          : 6
    Format                      : UTF-8
    Codec ID                    : S_TEXT/UTF8
    Codec ID/Info               : UTF-8 Plain Text
    Duration                    : 2 h 1 min
    Bit rate                    : 0 b/s
    Count of elements           : 11
    Stream size                 : 278 Bytes (0%)
    Title                       : Forzados-SRT [CinemaniaHDD]
    Language                    : Spanish
    Default                     : Yes
    Forced                      : No

    Text #4
    ID                          : 7
    Format                      : UTF-8
    Codec ID                    : S_TEXT/UTF8
    Codec ID/Info               : UTF-8 Plain Text
    Duration                    : 2 h 10 min
    Bit rate                    : 96 b/s
    Count of elements           : 2595
    Stream size                 : 92.6 KiB (0%)
    Title                       : Español-SRT [CinemaniaHDD]
    Language                    : Spanish
    Default                     : No
    Forced                      : No

    Menu
    00:00:00.000                : en:Chapter 01
    00:07:59.770                : en:Chapter 02
    00:15:21.795                : en:Chapter 03
    00:21:31.665                : en:Chapter 04
    00:30:29.953                : en:Chapter 05
    00:35:49.772                : en:Chapter 06
    00:43:32.276                : en:Chapter 07
    00:51:07.439                : en:Chapter 08
    00:58:17.452                : en:Chapter 09
    01:06:46.669                : en:Chapter 10
    01:11:39.920                : en:Chapter 11
    01:16:35.924                : en:Chapter 12
    01:21:36.933                : en:Chapter 13
    01:29:12.096                : en:Chapter 14
    01:34:21.864                : en:Chapter 15
    01:41:33.295                : en:Chapter 16
    01:46:17.245                : en:Chapter 17
    01:56:30.233                : en:Chapter 18
    02:04:11.026                : en:Chapter 19
    02:11:48.859                : en:Chapter 20

  • Peso: 6.15 GiB

Sinopsis

Descargar El Arte De Ser Adulto (2020) PLACEBO Full HD 1080p Latino. Scott ha sido un caso de desarrollo arrestado desde que su padre bombero murió cuando él tenía siete años. Ahora ha alcanzado la mitad de sus 20 años y ha logrado poco, persiguiendo el sueño de convertirse en un artista del tatuaje que parece estar fuera de su alcance. Mientras su ambiciosa hermana menor se va a la universidad, Scott todavía vive con su agotada madre enfermera de emergencias y pasa sus días fumando hierba, saliendo con los chicos, Oscar, Igor y Richie, y en secreto con su amigo de la infancia Kelsey. Pero cuando su madre comienza a salir con un bombero ruidoso llamado Ray, desencadena una serie de eventos que obligarán a Scott a lidiar con su dolor y dar sus primeros pasos tentativos para avanzar en la vida.

Ficha técnica

Video trailer de la película

Enlaces de descarga

Rip de Bluray

Descargar El Arte De Ser Adulto (2020) PLACEBO Full HD 1080p Latino




Aportes de DPeliculasHDmega la pass es:dpeliculashdmega.org Aportes de CinemaniaHD la pass es:cinemaniahdd.com

Películas relacionadas

descargar El Arte De Ser Adulto (2020) PLACEBO Full HD 1080p Latino Full 1080p 1080p gratis, El Arte De Ser Adulto (2020) PLACEBO Full HD 1080p Latino Full 1080p mega 1 link, El Arte De Ser Adulto (2020) PLACEBO Full HD 1080p Latino Full 1080p pelicula completa, descargar El Arte De Ser Adulto (2020) PLACEBO Full HD 1080p Latino Full 1080p gratis en mega.

El Arte De Ser Adulto (2020) PLACEBO Full HD 1080p Latino pelicula full hd, El Arte De Ser Adulto (2020) PLACEBO Full HD 1080p Latino mega latino, El Arte De Ser Adulto (2020) PLACEBO Full HD 1080p Latino 4k latino, El Arte De Ser Adulto (2020) PLACEBO Full HD 1080p Latino pelicula completa, El Arte De Ser Adulto (2020) PLACEBO Full HD 1080p Latino descargar gratis, descargar El Arte De Ser Adulto (2020) PLACEBO Full HD 1080p Latino pelicula latino, El Arte De Ser Adulto (2020) PLACEBO Full HD 1080p Latino 1 link mega, El Arte De Ser Adulto (2020) PLACEBO Full HD 1080p Latino 1 link google drive, El Arte De Ser Adulto (2020) PLACEBO Full HD 1080p Latino hd 1080p latino.
Comentarios 0