×

¿Problemas para descargar con Mozilla, EDGE? Deshabilita la opción "Abrir vinculos en una pestaña nueva" tal como lo muestra ésta imagen.

The Kindness of Strangers (2019) AMZN WEB-DL 1080p Latino

220 vistas

Información de The Kindness of Strangers (2019) AMZN WEB-DL 1080p Latino

Datos de la película

  • Calidad: WEBDL
  • Audio: Español Latino E-AC3 5.1 AMAZON - Ingles E-AC3 5.1 AMAZON
  • Subtitulos: Español Latino SRT- FORZADOS SRT
  • Resolución: 1920x800
  • Formato: MKV
  • Codec: H.264
  • Encoder: cinemaniahdd
  • Mediainfo: Clic para Mostrar Datos Ver
  • The Kindness of Strangers (2019) AMZN WEB-DL 1080p Latino [CNMNHDD].mkv
    Format                      : Matroska
    Format version              : Version 4
    File size                   : 5.78 GiB
    Duration                    : 1 h 54 min
    Overall bit rate            : 7 213 kb/s
    Movie name                  : The Kindness of Strangers (2019) - CinemaniaHDD.Net
    Encoded date                : UTC 2021-04-18 22:17:51
    Writing application         : mkvmerge v51.0.0 ('I Wish') 64-bit
    Writing library             : libebml v1.4.0 + libmatroska v1.6.2

    Video
    ID                          : 1
    Format                      : AVC
    Format/Info                 : Advanced Video Codec
    Format profile              : High@L4
    Format settings             : CABAC / 4 Ref Frames
    Format settings, CABAC      : Yes
    Format settings, Reference  : 4 frames
    Codec ID                    : V_MPEG4/ISO/AVC
    Duration                    : 1 h 54 min
    Bit rate mode               : Constant
    Bit rate                    : 5 290 kb/s
    Nominal bit rate            : 10 000 kb/s
    Width                       : 1 920 pixels
    Height                      : 800 pixels
    Display aspect ratio        : 2.40:1
    Frame rate mode             : Constant
    Frame rate                  : 23.976 (24000/1001) FPS
    Color space                 : YUV
    Chroma subsampling          : 4:2:0
    Bit depth                   : 8 bits
    Scan type                   : Progressive
    Bits/(Pixel*Frame)          : 0.144
    Stream size                 : 4.24 GiB (73%)
    Title                       : CinemaniaHDD
    Default                     : Yes
    Forced                      : No
    Color range                 : Limited
    Color primaries             : BT.709
    Transfer characteristics    : BT.709
    Matrix coefficients         : BT.709

    Audio #1
    ID                          : 2
    Format                      : AC-3
    Format/Info                 : Audio Coding 3
    Commercial name             : Dolby Digital
    Codec ID                    : A_AC3
    Duration                    : 1 h 54 min
    Bit rate mode               : Constant
    Bit rate                    : 640 kb/s
    Channel(s)                  : 6 channels
    Channel layout              : L R C LFE Ls Rs
    Sampling rate               : 48.0 kHz
    Frame rate                  : 31.250 FPS (1536 SPF)
    Compression mode            : Lossy
    Stream size                 : 525 MiB (9%)
    Title                       : Español latino - AC3 [CinemaniaHDD]
    Language                    : Spanish
    Service kind                : Complete Main
    Default                     : Yes
    Forced                      : No

    Audio #2
    ID                          : 3
    Format                      : E-AC-3
    Format/Info                 : Enhanced AC-3
    Commercial name             : Dolby Digital Plus
    Codec ID                    : A_EAC3
    Duration                    : 1 h 54 min
    Bit rate mode               : Constant
    Bit rate                    : 640 kb/s
    Channel(s)                  : 6 channels
    Channel layout              : L R C LFE Ls Rs
    Sampling rate               : 48.0 kHz
    Frame rate                  : 31.250 FPS (1536 SPF)
    Compression mode            : Lossy
    Stream size                 : 525 MiB (9%)
    Title                       : Español latino - E-AC3 [CinemaniaHDD]
    Language                    : Spanish
    Service kind                : Complete Main
    Default                     : No
    Forced                      : No

    Audio #3
    ID                          : 4
    Format                      : E-AC-3
    Format/Info                 : Enhanced AC-3
    Commercial name             : Dolby Digital Plus
    Codec ID                    : A_EAC3
    Duration                    : 1 h 54 min
    Bit rate mode               : Constant
    Bit rate                    : 640 kb/s
    Channel(s)                  : 6 channels
    Channel layout              : L R C LFE Ls Rs
    Sampling rate               : 48.0 kHz
    Frame rate                  : 31.250 FPS (1536 SPF)
    Compression mode            : Lossy
    Stream size                 : 525 MiB (9%)
    Title                       : Inglés - E-AC3 [CinemaniaHDD]
    Language                    : English
    Service kind                : Complete Main
    Default                     : No
    Forced                      : No

    Text #1
    ID                          : 5
    Format                      : UTF-8
    Codec ID                    : S_TEXT/UTF8
    Codec ID/Info               : UTF-8 Plain Text
    Duration                    : 2 s 502 ms
    Bit rate                    : 159 b/s
    Count of elements           : 1
    Stream size                 : 50.0 Bytes (0%)
    Title                       : Forzados [CinemaniaHDD]
    Language                    : Spanish
    Default                     : Yes
    Forced                      : Yes

    Text #2
    ID                          : 6
    Format                      : UTF-8
    Codec ID                    : S_TEXT/UTF8
    Codec ID/Info               : UTF-8 Plain Text
    Duration                    : 1 h 46 min
    Bit rate                    : 50 b/s
    Count of elements           : 1392
    Stream size                 : 39.7 KiB (0%)
    Title                       : Español latino [CinemaniaHDD]
    Language                    : Spanish
    Default                     : No
    Forced                      : No

    Text #3
    ID                          : 7
    Format                      : UTF-8
    Codec ID                    : S_TEXT/UTF8
    Codec ID/Info               : UTF-8 Plain Text
    Duration                    : 1 h 48 min
    Bit rate                    : 54 b/s
    Count of elements           : 1634
    Stream size                 : 43.5 KiB (0%)
    Title                       : Inglés [CC] [CinemaniaHDD]
    Language                    : English
    Default                     : No
    Forced                      : No

    Menu
    00:00:00.000                : en:Studio Logo / en:Studio Logo
    00:00:25.000                : en:Scene 2 / en:Scene 2
    00:00:34.000                : en:Scene 3 / en:Scene 3
    00:02:12.000                : en:Title Sequence / en:Title Sequence
    00:02:18.000                : en:Scene 5 / en:Scene 5
    00:11:14.000                : en:Scene 6 / en:Scene 6
    00:20:47.000                : en:Scene 7 / en:Scene 7
    00:30:36.000                : en:Scene 8 / en:Scene 8
    00:39:39.000                : en:Scene 9 / en:Scene 9
    00:47:31.000                : en:Scene 10 / en:Scene 10
    00:50:00.000                : en:Scene 11 / en:Scene 11
    00:58:12.000                : en:Scene 12 / en:Scene 12
    01:07:20.000                : en:Scene 13 / en:Scene 13
    01:18:49.000                : en:Scene 14 / en:Scene 14
    01:28:42.000                : en:Scene 15 / en:Scene 15
    01:37:47.000                : en:Scene 16 / en:Scene 16
    01:48:42.000                : en:End Credits / en:End Credits

     

  • Peso: 5.78 GiB

Sinopsis

Luego de huir de un marido abusivo, una madre y sus hijos encuentran amor, refugio y bondad en un grupo de extraños que luchan por sobrevivir en una fría Nueva York.

Ficha técnica

  • Titulo original: The Kindness of Strangers
  • Fecha de lanzamiento: 19-12-2019 (Canada, Denmark, France, Germany, Sweden, United Kingdom, United States of America)
  • Director: Lone Scherfig
  • Género: Drama

Video trailer de la película

Enlaces de descarga

Rip de Bluray

Descargar The Kindness of Strangers (2019) AMZN WEB-DL 1080p Latino




Aportes de DPeliculasHDmega la pass es:dpeliculashdmega.org Aportes de CinemaniaHD la pass es:cinemaniahdd.com
Guardado en : Drama

Películas relacionadas

  • Togo (2022) NF WEB-DL 1080p Latino

    Togo (2022) NF WEB-DL 1080p Latino

    2022
    Togo (2022) NF WEB-DL 1080p Latino

    1h 35m 2022

    Descargar Togo (2022) NF WEB-DL 1080p Latino. Los narcos de poca monta están copando las calles de Montevideo...

    Director: Adrián Caetano

    Género: Crimen

    Actores: Tito Prieto

  • El Ultimo Juego (2021) WEB-DL 1080p Latino

    El Ultimo Juego (2021) WEB-DL 1080p Latino

    2021
    El Ultimo Juego (2021) WEB-DL 1080p Latino

    1h 21m 2021

    Descargar El Ultimo Juego (2021) WEB-DL 1080p Latino. 6 extraños se despiertan dentro de una habitación...

    Director: John David Moffat IV

    Género: Drama

    Actores: Yasmin Irvine

descargar The Kindness of Strangers (2019) AMZN WEB-DL 1080p Latino WEBDL 1080p gratis, The Kindness of Strangers (2019) AMZN WEB-DL 1080p Latino WEBDL mega 1 link, The Kindness of Strangers (2019) AMZN WEB-DL 1080p Latino WEBDL pelicula completa, descargar The Kindness of Strangers (2019) AMZN WEB-DL 1080p Latino WEBDL gratis en mega.

The Kindness of Strangers (2019) AMZN WEB-DL 1080p Latino pelicula full hd, The Kindness of Strangers (2019) AMZN WEB-DL 1080p Latino mega latino, The Kindness of Strangers (2019) AMZN WEB-DL 1080p Latino 4k latino, The Kindness of Strangers (2019) AMZN WEB-DL 1080p Latino pelicula completa, The Kindness of Strangers (2019) AMZN WEB-DL 1080p Latino descargar gratis, descargar The Kindness of Strangers (2019) AMZN WEB-DL 1080p Latino pelicula latino, The Kindness of Strangers (2019) AMZN WEB-DL 1080p Latino 1 link mega, The Kindness of Strangers (2019) AMZN WEB-DL 1080p Latino 1 link google drive, The Kindness of Strangers (2019) AMZN WEB-DL 1080p Latino hd 1080p latino.
Comentarios 0