×

¿Problemas para descargar con Mozilla, EDGE? Deshabilita la opción "Abrir vinculos en una pestaña nueva" tal como lo muestra ésta imagen.

The Killing Kind (2023) Primera Temporada AMZN 1080p Latino

72 vistas

Información de The Killing Kind (2023) Primera Temporada AMZN 1080p Latino

Datos de la película

  • Calidad: 1080p
  • Audio: Español Latino AC3 2.0 WEB-DL - Ingles AC3 5.1 WEB-DL
  • Subtitulos: Español Latino SRT- FORZADOS SRT
  • Resolución: 1920x1080
  • Formato: MKV
  • Codec: H.264
  • Encoder: cinemaniahdd
  • Mediainfo: Clic para Mostrar Datos Ver
  • The Killing Kind T01E01 AMZN WEB-DL 1080p Latino [CNMNHDD].mkv
    Format                      : Matroska
    Format version              : Version 4
    File size                   : 3.69 GiB
    Duration                    : 48 min 59 s
    Overall bit rate            : 10.8 Mb/s
    Movie name                  : The Killing Kind S01E01 - Capitulo 1 [1080p] - CinemaniaHDD.Net
    Encoded date                : UTC 2024-04-14 22:04:35
    Writing application         : mkvmerge v56.1.0 ('My Friend') 64-bit
    Writing library             : libebml v1.4.2 + libmatroska v1.6.4

    Video
    ID                          : 1
    Format                      : AVC
    Format/Info                 : Advanced Video Codec
    Format profile              : High@L4
    Format settings             : CABAC / 4 Ref Frames
    Format settings, CABAC      : Yes
    Format settings, Reference  : 4 frames
    Codec ID                    : V_MPEG4/ISO/AVC
    Duration                    : 48 min 59 s
    Bit rate mode               : Constant
    Bit rate                    : 9 518 kb/s
    Nominal bit rate            : 10 000 kb/s
    Width                       : 1 920 pixels
    Height                      : 1 080 pixels
    Display aspect ratio        : 16:9
    Frame rate mode             : Constant
    Frame rate                  : 23.976 (24000/1001) FPS
    Color space                 : YUV
    Chroma subsampling          : 4:2:0
    Bit depth                   : 8 bits
    Scan type                   : Progressive
    Bits/(Pixel*Frame)          : 0.191
    Stream size                 : 3.26 GiB (88%)
    Title                       : CinemaniaHDD.Net
    Default                     : Yes
    Forced                      : No
    Color range                 : Limited
    Color primaries             : BT.709
    Transfer characteristics    : BT.709
    Matrix coefficients         : BT.709

    Audio #1
    ID                          : 2
    Format                      : AC-3
    Format/Info                 : Audio Coding 3
    Commercial name             : Dolby Digital
    Codec ID                    : A_AC3
    Duration                    : 48 min 59 s
    Bit rate mode               : Constant
    Bit rate                    : 384 kb/s
    Channel(s)                  : 2 channels
    Channel layout              : L R
    Sampling rate               : 48.0 kHz
    Frame rate                  : 31.250 FPS (1536 SPF)
    Compression mode            : Lossy
    Stream size                 : 135 MiB (4%)
    Title                       : Español Latino (AC3) [CinemaniaHDD]
    Language                    : Spanish
    Service kind                : Complete Main
    Default                     : Yes
    Forced                      : No

    Audio #2
    ID                          : 3
    Format                      : E-AC-3
    Format/Info                 : Enhanced AC-3
    Commercial name             : Dolby Digital Plus
    Codec ID                    : A_EAC3
    Duration                    : 48 min 59 s
    Bit rate mode               : Constant
    Bit rate                    : 224 kb/s
    Channel(s)                  : 2 channels
    Channel layout              : L R
    Sampling rate               : 48.0 kHz
    Frame rate                  : 31.250 FPS (1536 SPF)
    Compression mode            : Lossy
    Stream size                 : 78.5 MiB (2%)
    Title                       : Español Latino (E-AC3) [CinemaniaHDD]
    Language                    : Spanish
    Service kind                : Complete Main
    Default                     : No
    Forced                      : No

    Audio #3
    ID                          : 4
    Format                      : E-AC-3
    Format/Info                 : Enhanced AC-3
    Commercial name             : Dolby Digital Plus
    Codec ID                    : A_EAC3
    Duration                    : 48 min 59 s
    Bit rate mode               : Constant
    Bit rate                    : 640 kb/s
    Channel(s)                  : 6 channels
    Channel layout              : L R C LFE Ls Rs
    Sampling rate               : 48.0 kHz
    Frame rate                  : 31.250 FPS (1536 SPF)
    Compression mode            : Lossy
    Stream size                 : 224 MiB (6%)
    Title                       : Inglés (Original) [CinemaniaHDD]
    Language                    : English
    Service kind                : Complete Main
    Default                     : No
    Forced                      : No

    Text #1
    ID                          : 5
    Format                      : UTF-8
    Codec ID                    : S_TEXT/UTF8
    Codec ID/Info               : UTF-8 Plain Text
    Duration                    : 47 min 56 s
    Bit rate                    : 1 b/s
    Count of elements           : 26
    Stream size                 : 614 Bytes (0%)
    Title                       : Forzados [CinemaniaHDD]
    Language                    : Spanish
    Default                     : Yes
    Forced                      : Yes

    Text #2
    ID                          : 6
    Format                      : UTF-8
    Codec ID                    : S_TEXT/UTF8
    Codec ID/Info               : UTF-8 Plain Text
    Duration                    : 48 min 18 s
    Bit rate                    : 46 b/s
    Count of elements           : 552
    Stream size                 : 16.4 KiB (0%)
    Title                       : Español Latino [CinemaniaHDD]
    Language                    : Spanish
    Default                     : No
    Forced                      : No

    Text #3
    ID                          : 7
    Format                      : UTF-8
    Codec ID                    : S_TEXT/UTF8
    Codec ID/Info               : UTF-8 Plain Text
    Duration                    : 48 min 25 s
    Bit rate                    : 52 b/s
    Count of elements           : 632
    Stream size                 : 18.7 KiB (0%)
    Title                       : Inglés [CinemaniaHDD]
    Language                    : English
    Default                     : No
    Forced                      : No

     

  • Peso: 3.69 GiB Aprox ---- 21 GiB in 6 Chapters.

Sinopsis

La abogada Ingrid Lewis defiende a John Webster contra los cargos de acoso, pero Webster se vuelve contra ella.

Ficha técnica

Video trailer de la película

Enlaces de descarga

Rip de Bluray

Descargar The Killing Kind (2023) Primera Temporada AMZN 1080p Latino




Aportes de DPeliculasHDmega la pass es:dpeliculashdmega.org Aportes de CinemaniaHD la pass es:cinemaniahdd.com Aportes recientes:cinemaniahdd.net
Guardado en : Crimen , Drama , Series

Películas relacionadas

descargar The Killing Kind (2023) Primera Temporada AMZN 1080p Latino 1080p 1080p gratis, The Killing Kind (2023) Primera Temporada AMZN 1080p Latino 1080p mega 1 link, The Killing Kind (2023) Primera Temporada AMZN 1080p Latino 1080p serie completa, descargar The Killing Kind (2023) Primera Temporada AMZN 1080p Latino 1080p gratis en mega.

The Killing Kind (2023) Primera Temporada AMZN 1080p Latino pelicula full hd, The Killing Kind (2023) Primera Temporada AMZN 1080p Latino mega latino, The Killing Kind (2023) Primera Temporada AMZN 1080p Latino 4k latino, The Killing Kind (2023) Primera Temporada AMZN 1080p Latino pelicula completa, The Killing Kind (2023) Primera Temporada AMZN 1080p Latino descargar gratis, descargar The Killing Kind (2023) Primera Temporada AMZN 1080p Latino pelicula latino, The Killing Kind (2023) Primera Temporada AMZN 1080p Latino 1 link mega, The Killing Kind (2023) Primera Temporada AMZN 1080p Latino 1 link google drive, The Killing Kind (2023) Primera Temporada AMZN 1080p Latino hd 1080p latino.
Comentarios 0