×

¿Problemas para descargar con Mozilla, EDGE? Deshabilita la opción "Abrir vinculos en una pestaña nueva" tal como lo muestra ésta imagen.

The Killer: Mision Rescate (2022) REMUX 1080p Latino

42 vistas

Información de The Killer: Mision Rescate (2022) REMUX 1080p Latino

Datos de la película

  • Calidad: Full 1080p
  • Audio: Se especifica abajo de la Sinopsis
  • Subtitulos: Español Latino SRT- FORZADOS SRT
  • Resolución: 1920x1080p
  • Formato: MKV
  • Codec: H.264
  • Encoder: Melkor
  • Mediainfo: Clic para Mostrar Datos Ver
  • The Killer. Mision Rescate (2022) REMUX 1080p Latino.mkv
    Format                      : Matroska
    Format version              : Version 4
    File size                   : 24.2 GiB
    Duration                    : 1 h 35 min
    Overall bit rate mode       : Variable
    Overall bit rate            : 36.3 Mb/s
    Movie name                  : The Killer (2022) CinemaniaHDD.Net
    Encoded date                : UTC 2022-12-24 20:04:29
    Writing application         : mkvmerge v56.1.0 ('My Friend') 64-bit
    Writing library             : libebml v1.4.2 + libmatroska v1.6.4
    Attachments                 : CINEMANIAHD.png

    Video
    ID                          : 1
    Format                      : AVC
    Format/Info                 : Advanced Video Codec
    Format profile              : High@L4.1
    Format settings             : CABAC / 4 Ref Frames
    Format settings, CABAC      : Yes
    Format settings, Reference  : 4 frames
    Codec ID                    : V_MPEG4/ISO/AVC
    Duration                    : 1 h 35 min
    Bit rate mode               : Variable
    Bit rate                    : 32.0 Mb/s
    Maximum bit rate            : 36.0 Mb/s
    Width                       : 1 920 pixels
    Height                      : 1 080 pixels
    Display aspect ratio        : 16:9
    Frame rate mode             : Constant
    Frame rate                  : 24.000 FPS
    Standard                    : Component
    Color space                 : YUV
    Chroma subsampling          : 4:2:0
    Bit depth                   : 8 bits
    Scan type                   : Progressive
    Bits/(Pixel*Frame)          : 0.643
    Stream size                 : 21.3 GiB (88%)
    Title                       : REMUX HD1080p [CinemaniaHDD]
    Writing library             : x264 core 155
    Encoding settings           : cabac=1 / ref=4 / deblock=1:0:0 / analyse=0x3:0x133 / me=umh / subme=9 / psy=1 / psy_rd=1.00:0.00 / mixed_ref=1 / me_range=24 / chroma_me=1 / trellis=2 / 8x8dct=1 / cqm=1 / deadzone=21,11 / fast_pskip=1 / chroma_qp_offset=-2 / threads=12 / lookahead_threads=1 / sliced_threads=0 / slices=4 / nr=0 / decimate=1 / interlaced=0 / minigop=1 / stitchable=1 / constrained_intra=0 / bframes=3 / b_pyramid=0 / b_adapt=2 / b_bias=0 / direct=3 / weightb=1 / open_gop=1 / weightp=1 / keyint=24 / keyint_min=1 / scenecut=40 / intra_refresh=0 / rc_lookahead=24 / rc=2pass / mbtree=1 / bitrate=32000 / ratetol=1.0 / qcomp=0.60 / qpmin=3 / qpmax=69 / qpstep=4 / cplxblur=20.0 / qblur=0.5 / vbv_maxrate=36000 / vbv_bufsize=30000 / nal_hrd=vbr / filler=0 / ip_ratio=1.40 / aq=1:1.00
    Default                     : Yes
    Forced                      : Yes
    Color range                 : Limited
    Color primaries             : BT.709
    Transfer characteristics    : BT.709
    Matrix coefficients         : BT.709

    Audio #1
    ID                          : 2
    Format                      : AC-3
    Format/Info                 : Audio Coding 3
    Commercial name             : Dolby Digital
    Codec ID                    : A_AC3
    Duration                    : 1 h 35 min
    Bit rate mode               : Constant
    Bit rate                    : 384 kb/s
    Channel(s)                  : 6 channels
    Channel layout              : L R C LFE Ls Rs
    Sampling rate               : 48.0 kHz
    Frame rate                  : 31.250 FPS (1536 SPF)
    Compression mode            : Lossy
    Delay relative to video     : 21 ms
    Stream size                 : 262 MiB (1%)
    Title                       : Español Latino [CinemaniaHDD]
    Language                    : Spanish
    Service kind                : Complete Main
    Default                     : Yes
    Forced                      : Yes

    Audio #2
    ID                          : 3
    Format                      : DTS XLL
    Format/Info                 : Digital Theater Systems
    Commercial name             : DTS-HD Master Audio
    Codec ID                    : A_DTS
    Duration                    : 1 h 35 min
    Bit rate mode               : Variable
    Bit rate                    : 3 921 kb/s
    Channel(s)                  : 6 channels
    Channel layout              : C L R Ls Rs LFE
    Sampling rate               : 48.0 kHz
    Frame rate                  : 93.750 FPS (512 SPF)
    Bit depth                   : 24 bits
    Compression mode            : Lossless
    Stream size                 : 2.61 GiB (11%)
    Title                       : Coreano [CinemaniaHDD]
    Language                    : Korean
    Default                     : No
    Forced                      : No

    Text #1
    ID                          : 4
    Format                      : UTF-8
    Codec ID                    : S_TEXT/UTF8
    Codec ID/Info               : UTF-8 Plain Text
    Duration                    : 1 h 22 min
    Bit rate                    : 0 b/s
    Count of elements           : 12
    Stream size                 : 274 Bytes (0%)
    Title                       : Forzados-SRT [CinemaniaHDD]
    Default                     : Yes
    Forced                      : Yes

    Text #2
    ID                          : 5
    Format                      : UTF-8
    Codec ID                    : S_TEXT/UTF8
    Codec ID/Info               : UTF-8 Plain Text
    Duration                    : 1 h 28 min
    Bit rate                    : 33 b/s
    Count of elements           : 838
    Stream size                 : 22.1 KiB (0%)
    Title                       : Español-SRT [CinemaniaHDD]
    Language                    : Spanish
    Default                     : No
    Forced                      : No

    Text #3
    ID                          : 6
    Format                      : PGS
    Muxing mode                 : zlib
    Codec ID                    : S_HDMV/PGS
    Codec ID/Info               : Picture based subtitle format used on BDs/HD-DVDs
    Duration                    : 1 h 29 min
    Bit rate                    : 20.6 kb/s
    Count of elements           : 1721
    Stream size                 : 13.1 MiB (0%)
    Title                       : Ingles-PGS [CinemaniaHDD]
    Language                    : English
    Default                     : No
    Forced                      : No

    Menu
    00:00:00.000                : Chapter 01
    00:09:25.708                : Chapter 02
    00:19:21.250                : Chapter 03
    00:28:49.500                : Chapter 04
    00:38:12.708                : Chapter 05
    00:47:47.625                : Chapter 06
    00:57:23.583                : Chapter 07
    01:06:31.417                : Chapter 08
    01:16:01.500                : Chapter 09
    01:26:05.208                : Chapter 10

  • Peso: 24.2 GiB

Sinopsis

Descargar The Killer: Mision Rescate (2022) REMUX 1080p Latino. Un asesino a sueldo retirado cuya esposa se va de viaje con su amigo y le pide que cuide de la hija adolescente del amigo. Las cosas salen mal cuando se ve obligado a usar un poco de violencia para proteger a la niña de los delincuentes juveniles, pero luego los encuentran muertos y la niña es secuestrada.

Español Latino AC3 5.1 Web – Coreano DTS-HD 5.1 BD

Ficha técnica

Video trailer de la película

Enlaces de descarga

Rip de Bluray

Descargar The Killer: Mision Rescate (2022) REMUX 1080p Latino




Aportes de DPeliculasHDmega la pass es:dpeliculashdmega.org Aportes de CinemaniaHD la pass es:cinemaniahdd.com
Guardado en : Acción , Crimen , Remux , Suspenso

Películas relacionadas

  • Corazón de tinta (2008) REMUX 1080p Latino

    Corazón de tinta (2008) REMUX 1080p Latino

    2008
    Corazón de tinta (2008) REMUX 1080p Latino

    1h 46m 2008

    Descargar Corazón de tinta (2008) REMUX 1080p Latino. Mortimer “Mo” Folchart y su hija de 12 años,...

    Director: Sharon Mansfield

    Género: Aventura

    Actores: Tereza Srbová

  • Juego de espías (2001) 1080p Latino

    Juego de espías (2001) 1080p Latino

    2001
    Juego de espías (2001) 1080p Latino

    2h 6m 2001

    Descargar Juego de espías (2001) 1080p Latino. Corre el año 1991, y al veterano agente de la CIA Nathan...

    Director: Tony Scott

    Género: Acción

    Actores: Zsolt Zágoni

  • Juego de espías (2001) Full HD 1080p Latino

    Juego de espías (2001) Full HD 1080p Latino

    2001
    Juego de espías (2001) Full HD 1080p Latino

    2h 6m 2001

    Descargar Juego de espías (2001) Full HD 1080p Latino. Corre el año 1991, y al veterano agente de la...

    Director: Tony Scott

    Género: Acción

    Actores: Zsolt Zágoni

  • Juego de espías (2001) REMUX 1080p Latino

    Juego de espías (2001) REMUX 1080p Latino

    2001
    Juego de espías (2001) REMUX 1080p Latino

    1h 55m 2001

    Descargar Juego de espías (2001) REMUX 1080p Latino. El día de su jubilación, el veterano agente de...

    Director: Tony Scott

    Género: Acción

    Actores: Zsolt Zágoni

descargar The Killer: Mision Rescate (2022) REMUX 1080p Latino Full 1080p 1080p gratis, The Killer: Mision Rescate (2022) REMUX 1080p Latino Full 1080p mega 1 link, The Killer: Mision Rescate (2022) REMUX 1080p Latino Full 1080p pelicula completa, descargar The Killer: Mision Rescate (2022) REMUX 1080p Latino Full 1080p gratis en mega.

The Killer: Mision Rescate (2022) REMUX 1080p Latino pelicula full hd, The Killer: Mision Rescate (2022) REMUX 1080p Latino mega latino, The Killer: Mision Rescate (2022) REMUX 1080p Latino 4k latino, The Killer: Mision Rescate (2022) REMUX 1080p Latino pelicula completa, The Killer: Mision Rescate (2022) REMUX 1080p Latino descargar gratis, descargar The Killer: Mision Rescate (2022) REMUX 1080p Latino pelicula latino, The Killer: Mision Rescate (2022) REMUX 1080p Latino 1 link mega, The Killer: Mision Rescate (2022) REMUX 1080p Latino 1 link google drive, The Killer: Mision Rescate (2022) REMUX 1080p Latino hd 1080p latino.
Comentarios 0