×

¿Problemas para descargar con Mozilla, EDGE? Deshabilita la opción "Abrir vinculos en una pestaña nueva" tal como lo muestra ésta imagen.

El escuadrón de la muerte (2019) REMUX 1080p Latino

325 vistas

Información de El escuadrón de la muerte (2019) REMUX 1080p Latino

Datos de la película

  • Calidad: Full 1080p
  • Audio: Español Latino AC3 5.1 iTUNES - Ingles DTS 5.1 BLURAY
  • Subtitulos: Español Latino PGS - Ingles PGS
  • Resolución: 1920x1080p
  • Formato: MKV
  • Codec: H.264
  • Encoder: CinemaniaHD
  • Mediainfo: Clic para Mostrar Datos Ver
  • El Escuadron De La Muerte (2019) REMUX 1080p Latino.mkv
    Format                      : Matroska
    Format version              : Version 4
    File size                   : 17.4 GiB
    Duration                    : 1 h 27 min
    Overall bit rate mode       : Variable
    Overall bit rate            : 28.4 Mb/s
    Movie name                  : The Kill Team (2019) CinemaniaHDD.Net
    Encoded date                : UTC 2020-04-24 16:46:49
    Writing application         : mkvmerge v42.0.0 ('Overtime') 64-bit
    Writing library             : libebml v1.3.10 + libmatroska v1.5.2
    Attachments                 : CINEMANIAHD.png

    Video
    ID                          : 1
    Format                      : AVC
    Format/Info                 : Advanced Video Codec
    Format profile              : High@L4.1
    Format settings             : CABAC / 4 Ref Frames
    Format settings, CABAC      : Yes
    Format settings, ReFrames   : 4 frames
    Codec ID                    : V_MPEG4/ISO/AVC
    Duration                    : 1 h 27 min
    Bit rate mode               : Variable
    Bit rate                    : 24.2 Mb/s
    Maximum bit rate            : 37.0 Mb/s
    Width                       : 1 920 pixels
    Height                      : 1 080 pixels
    Display aspect ratio        : 16:9
    Frame rate mode             : Constant
    Frame rate                  : 23.976 (24000/1001) FPS
    Color space                 : YUV
    Chroma subsampling          : 4:2:0
    Bit depth                   : 8 bits
    Scan type                   : Progressive
    Bits/(Pixel*Frame)          : 0.486
    Stream size                 : 14.8 GiB (85%)
    Title                       : REMUX 1080p [CinemaniaHDD]
    Language                    : English
    Default                     : Yes
    Forced                      : No

    Audio #1
    ID                          : 2
    Format                      : AC-3
    Format/Info                 : Audio Coding 3
    Commercial name             : Dolby Digital
    Codec ID                    : A_AC3
    Duration                    : 1 h 27 min
    Bit rate mode               : Constant
    Bit rate                    : 448 kb/s
    Channel(s)                  : 6 channels
    Channel layout              : L R C LFE Ls Rs
    Sampling rate               : 48.0 kHz
    Frame rate                  : 31.250 FPS (1536 SPF)
    Bit depth                   : 16 bits
    Compression mode            : Lossy
    Stream size                 : 280 MiB (2%)
    Title                       : Español Latino [CinemaniaHDD]
    Language                    : Spanish
    Service kind                : Complete Main
    Default                     : Yes
    Forced                      : No

    Audio #2
    ID                          : 3
    Format                      : DTS XLL
    Format/Info                 : Digital Theater Systems
    Commercial name             : DTS-HD Master Audio
    Codec ID                    : A_DTS
    Duration                    : 1 h 27 min
    Bit rate mode               : Variable
    Bit rate                    : 3 746 kb/s
    Channel(s)                  : 6 channels
    Channel layout              : C L R Ls Rs LFE
    Sampling rate               : 48.0 kHz
    Frame rate                  : 93.750 FPS (512 SPF)
    Bit depth                   : 24 bits
    Compression mode            : Lossless
    Stream size                 : 2.29 GiB (13%)
    Title                       : Ingles [CinemaniaHDD]
    Language                    : English
    Default                     : No
    Forced                      : No

    Text #1
    ID                          : 4
    Format                      : PGS
    Muxing mode                 : zlib
    Codec ID                    : S_HDMV/PGS
    Codec ID/Info               : Picture based subtitle format used on BDs/HD-DVDs
    Duration                    : 1 h 22 min
    Bit rate                    : 28.1 kb/s
    Count of elements           : 1725
    Stream size                 : 16.5 MiB (0%)
    Title                       : Español-PGS [CinemaniaHDD]
    Language                    : Spanish
    Default                     : No
    Forced                      : No

    Text #2
    ID                          : 5
    Format                      : PGS
    Muxing mode                 : zlib
    Codec ID                    : S_HDMV/PGS
    Codec ID/Info               : Picture based subtitle format used on BDs/HD-DVDs
    Duration                    : 1 h 21 min
    Bit rate                    : 34.5 kb/s
    Count of elements           : 1861
    Stream size                 : 20.2 MiB (0%)
    Title                       : Ingles-PGS [CinemaniaHDD]
    Language                    : English
    Default                     : No
    Forced                      : No

    Text #3
    ID                          : 6
    Format                      : UTF-8
    Codec ID                    : S_TEXT/UTF8
    Codec ID/Info               : UTF-8 Plain Text
    Duration                    : 1 h 19 min
    Bit rate                    : 1 b/s
    Count of elements           : 21
    Stream size                 : 904 Bytes (0%)
    Title                       : Forzados-SRT [CinemaniaHDD]
    Language                    : Spanish
    Default                     : Yes
    Forced                      : No

    Text #4
    ID                          : 7
    Format                      : UTF-8
    Codec ID                    : S_TEXT/UTF8
    Codec ID/Info               : UTF-8 Plain Text
    Duration                    : 1 h 22 min
    Bit rate                    : 42 b/s
    Count of elements           : 865
    Stream size                 : 25.7 KiB (0%)
    Title                       : Español-SRT [CinemaniaHDD]
    Language                    : Spanish
    Default                     : No
    Forced                      : No

    Menu
    00:00:00.000                : en:Chapter 01
    00:03:28.917                : en:Chapter 02
    00:09:48.004                : en:Chapter 03
    00:16:32.533                : en:Chapter 04
    00:22:08.285                : en:Chapter 05
    00:30:03.218                : en:Chapter 06
    00:36:08.332                : en:Chapter 07
    00:41:25.107                : en:Chapter 08
    00:46:30.746                : en:Chapter 09
    00:49:54.825                : en:Chapter 10
    00:54:47.492                : en:Chapter 11
    00:58:57.825                : en:Chapter 12
    01:04:09.387                : en:Chapter 13
    01:08:43.285                : en:Chapter 14
    01:12:09.616                : en:Chapter 15
    01:17:00.490                : en:Chapter 16

  • Peso: 17.4 GiB

Sinopsis

Descargar El escuadrón de la muerte (2019) REMUX 1080p Latino. Afganistán, 2009. El recién llegado Andrew Briggman (Nat Wolff) es un soldado que trata de destacar dentro de un escuadro´n repleto de salvajes militares. Inspirado por la determinacio´n del sargento Deeks (Alexander Skarsga°rd), Briggman trata de imitar su conducta temeraria, y en seguida consigue escalar puestos. Pero cuando Briggman es testigo de co´mo el peloto´n comienza a matar civiles inocentes, tendrá muchas dudas morales al respecto. Entonces tendrá que tomar una difícil decisión: denunciarlo poniendo en peligro su vida o callarse para participar en lo que cree que son cri´menes contra los derechos humanos. Esta película bélica basada en hechos reales la dirige el dos veces nominado al Oscar Dan Krauss.

Ficha técnica

Video trailer de la película

Enlaces de descarga

Rip de Bluray

Descargar El escuadrón de la muerte (2019) REMUX 1080p Latino




Aportes de DPeliculasHDmega la pass es:dpeliculashdmega.org Aportes de CinemaniaHD la pass es:cinemaniahdd.com
Guardado en : Acción , Drama , Remux , Suspenso

Películas relacionadas

descargar El escuadrón de la muerte (2019) REMUX 1080p Latino Full 1080p 1080p gratis, El escuadrón de la muerte (2019) REMUX 1080p Latino Full 1080p mega 1 link, El escuadrón de la muerte (2019) REMUX 1080p Latino Full 1080p pelicula completa, descargar El escuadrón de la muerte (2019) REMUX 1080p Latino Full 1080p gratis en mega.

El escuadrón de la muerte (2019) REMUX 1080p Latino pelicula full hd, El escuadrón de la muerte (2019) REMUX 1080p Latino mega latino, El escuadrón de la muerte (2019) REMUX 1080p Latino 4k latino, El escuadrón de la muerte (2019) REMUX 1080p Latino pelicula completa, El escuadrón de la muerte (2019) REMUX 1080p Latino descargar gratis, descargar El escuadrón de la muerte (2019) REMUX 1080p Latino pelicula latino, El escuadrón de la muerte (2019) REMUX 1080p Latino 1 link mega, El escuadrón de la muerte (2019) REMUX 1080p Latino 1 link google drive, El escuadrón de la muerte (2019) REMUX 1080p Latino hd 1080p latino.
Comentarios 0