×

¿Problemas para descargar con Mozilla, EDGE? Deshabilita la opción "Abrir vinculos en una pestaña nueva" tal como lo muestra ésta imagen.

The Jungle Bunch (2017) AMZN WEB-DL 1080p Latino

18 vistas

Información de The Jungle Bunch (2017) AMZN WEB-DL 1080p Latino

Datos de la película

  • Calidad: 1080p
  • Audio: Español Latino AC3 2.0
  • Subtitulos: No
  • Resolución: 1920x1080
  • Formato: MKV
  • Codec: H.264
  • Encoder: cinemaniahdd
  • Mediainfo: Clic para Mostrar Datos Ver
  • The Jungle Bunch (2017) AMZN WEB-DL 1080p Latino [CNMNHDD].mkv
    Format                      : Matroska
    Format version              : Version 4
    File size                   : 5.91 GiB
    Duration                    : 1 h 37 min
    Overall bit rate mode       : Constant
    Overall bit rate            : 8 710 kb/s
    Movie name                  : Una Jungla de Locura (2017) [1080p] - CinemaniaHDD.Net
    Encoded date                : UTC 2024-07-09 02:16:11
    Writing application         : mkvmerge v56.1.0 ('My Friend') 64-bit
    Writing library             : libebml v1.4.2 + libmatroska v1.6.4

    Video
    ID                          : 1
    Format                      : AVC
    Format/Info                 : Advanced Video Codec
    Format profile              : High@L4
    Format settings             : CABAC / 4 Ref Frames
    Format settings, CABAC      : Yes
    Format settings, Reference  : 4 frames
    Codec ID                    : V_MPEG4/ISO/AVC
    Duration                    : 1 h 37 min
    Bit rate mode               : Constant
    Bit rate                    : 7 460 kb/s
    Nominal bit rate            : 10 000 kb/s
    Width                       : 1 920 pixels
    Height                      : 800 pixels
    Display aspect ratio        : 2.40:1
    Frame rate mode             : Constant
    Frame rate                  : 24.000 FPS
    Color space                 : YUV
    Chroma subsampling          : 4:2:0
    Bit depth                   : 8 bits
    Scan type                   : Progressive
    Bits/(Pixel*Frame)          : 0.202
    Stream size                 : 5.06 GiB (86%)
    Title                       : CinemaniaHDD
    Default                     : Yes
    Forced                      : No
    Color range                 : Limited
    Color primaries             : BT.709
    Transfer characteristics    : BT.709
    Matrix coefficients         : BT.709

    Audio #1
    ID                          : 2
    Format                      : AC-3
    Format/Info                 : Audio Coding 3
    Commercial name             : Dolby Digital
    Codec ID                    : A_AC3
    Duration                    : 1 h 37 min
    Bit rate mode               : Constant
    Bit rate                    : 384 kb/s
    Channel(s)                  : 2 channels
    Channel layout              : L R
    Sampling rate               : 48.0 kHz
    Frame rate                  : 31.250 FPS (1536 SPF)
    Compression mode            : Lossy
    Stream size                 : 267 MiB (4%)
    Title                       : Español latino (AC3) [CinemaniaHDD]
    Language                    : Spanish
    Service kind                : Complete Main
    Default                     : Yes
    Forced                      : No

    Audio #2
    ID                          : 3
    Format                      : E-AC-3
    Format/Info                 : Enhanced AC-3
    Commercial name             : Dolby Digital Plus
    Codec ID                    : A_EAC3
    Duration                    : 1 h 37 min
    Bit rate mode               : Constant
    Bit rate                    : 224 kb/s
    Channel(s)                  : 2 channels
    Channel layout              : L R
    Sampling rate               : 48.0 kHz
    Frame rate                  : 31.250 FPS (1536 SPF)
    Compression mode            : Lossy
    Stream size                 : 156 MiB (3%)
    Title                       : Español latino (E-AC3) [CinemaniaHDD]
    Language                    : Spanish
    Service kind                : Complete Main
    Default                     : No
    Forced                      : No

    Audio #3
    ID                          : 4
    Format                      : E-AC-3
    Format/Info                 : Enhanced AC-3
    Commercial name             : Dolby Digital Plus
    Codec ID                    : A_EAC3
    Duration                    : 1 h 37 min
    Bit rate mode               : Constant
    Bit rate                    : 640 kb/s
    Channel(s)                  : 6 channels
    Channel layout              : L R C LFE Ls Rs
    Sampling rate               : 48.0 kHz
    Frame rate                  : 31.250 FPS (1536 SPF)
    Compression mode            : Lossy
    Stream size                 : 445 MiB (7%)
    Title                       : Francés (Original) [CinemaniaHDD]
    Language                    : French
    Service kind                : Complete Main
    Default                     : No
    Forced                      : No

     

  • Peso: 5.91 GiB

Sinopsis

Maurice es un pingüino que fue criado como un tigre. Se propone junto a sus amigos mantener el orden y la justicia en la selva, como antes hizo su madre. Pero Igor, un malvado koala se lo va a poner difícil.

Ficha técnica

Video trailer de la película

Enlaces de descarga

Rip de Bluray

Descargar The Jungle Bunch (2017) AMZN WEB-DL 1080p Latino




Aportes de DPeliculasHDmega la pass es:dpeliculashdmega.org Aportes de CinemaniaHD la pass es:cinemaniahdd.com Aportes recientes:cinemaniahdd.net
Guardado en : Animación , Aventura , Comedia , Familia

Películas relacionadas

  • Un Heroe Anonimo (2024) 1080p Latino-CMHDD

    Un Heroe Anonimo (2024) 1080p Latino-CMHDD

    2024
    Un Heroe Anonimo (2024) 1080p Latino-CMHDD

    1h 53m 2024

    Descargar Un Heroe Anonimo (2024) 1080p Latino-CMHDD. Basada en una extraordinaria historia real, la...

    Director: Richard Ramsey

    Género: Drama

    Actores: Vin Morreale Jr

  • Un Heroe Anonimo (2024) Full HD 1080p Latino-CMHDD

    Un Heroe Anonimo (2024) Full HD 1080p Latino-CMHDD

    2024
    Un Heroe Anonimo (2024) Full HD 1080p Latino-CMHDD

    1h 53m 2024

    Descargar Un Heroe Anonimo (2024) Full HD 1080p Latino-CMHDD Basada en una extraordinaria historia real,...

    Director: Richard Ramsey

    Género: Drama

    Actores: Vin Morreale Jr

  • Un Heroe Anonimo (2024) REMUX 1080p Latino-CMHDD

    Un Heroe Anonimo (2024) REMUX 1080p Latino-CMHDD

    2024
    Un Heroe Anonimo (2024) REMUX 1080p Latino-CMHDD

    1h 53m 2024

    Descargar Un Heroe Anonimo (2024) REMUX 1080p Latino-CMHDD. Basada en una extraordinaria historia real,...

    Director: Richard Ramsey

    Género: Drama

    Actores: Vin Morreale Jr

  • Scary Movie 5 (2013) REMUX 1080p Latino – CMHDD

    Scary Movie 5 (2013) REMUX 1080p Latino – CMHDD

    2013
    Scary Movie 5 (2013) REMUX 1080p Latino – CMHDD

    1h 28m 2013

    Los felizmente casados Dan y Jody empiezan a observar algunos fenómenos extraños en su casa tras volver...

    Director: Tim Fitzgerald

    Género: Comedia

    Actores: Zoe Pessin

  • Scary Movie 4 (2006) REMUX 1080p Latino – CMHDD

    Scary Movie 4 (2006) REMUX 1080p Latino – CMHDD

    2006
    Scary Movie 4 (2006) REMUX 1080p Latino – CMHDD

    1h 29m 2006

    Una nueva entrega de la franquicia que parodia los últimos títulos del cine americano. Esta vez, la...

    Director: Steve Eathorne

    Género: Comedia

    Actores: YoungBloodZ

descargar The Jungle Bunch (2017) AMZN WEB-DL 1080p Latino 1080p 1080p gratis, The Jungle Bunch (2017) AMZN WEB-DL 1080p Latino 1080p mega 1 link, The Jungle Bunch (2017) AMZN WEB-DL 1080p Latino 1080p pelicula completa, descargar The Jungle Bunch (2017) AMZN WEB-DL 1080p Latino 1080p gratis en mega.

The Jungle Bunch (2017) AMZN WEB-DL 1080p Latino pelicula full hd, The Jungle Bunch (2017) AMZN WEB-DL 1080p Latino mega latino, The Jungle Bunch (2017) AMZN WEB-DL 1080p Latino 4k latino, The Jungle Bunch (2017) AMZN WEB-DL 1080p Latino pelicula completa, The Jungle Bunch (2017) AMZN WEB-DL 1080p Latino descargar gratis, descargar The Jungle Bunch (2017) AMZN WEB-DL 1080p Latino pelicula latino, The Jungle Bunch (2017) AMZN WEB-DL 1080p Latino 1 link mega, The Jungle Bunch (2017) AMZN WEB-DL 1080p Latino 1 link google drive, The Jungle Bunch (2017) AMZN WEB-DL 1080p Latino hd 1080p latino.
Comentarios 0