×

¿Problemas para descargar con Mozilla, EDGE? Deshabilita la opción "Abrir vinculos en una pestaña nueva" tal como lo muestra ésta imagen.

El Libro De La Selva (2016) 4K UHD HDR Latino

1.527 vistas

Información de El Libro De La Selva (2016) 4K UHD HDR Latino

Datos de la película

  • Calidad: 4K HDR
  • Audio: Se especifica abajo de la Sinopsis
  • Subtitulos: Español Latino PGS - Ingles PGS
  • Resolución: 3840x2076p
  • Formato: MKV
  • Codec: HEVC
  • Encoder: CinefiloCool
  • Mediainfo: Clic para Mostrar Datos Ver
  • El libro de la selva (2016) UHD HDR Latino-CMHDD.mkv
    Format                      : Matroska
    Format version              : Version 4
    File size                   : 15.1 GiB
    Duration                    : 1 h 45 min
    Overall bit rate            : 20.4 Mb/s
    Movie name                  : CinemaniaHDD.Net
    Encoded date                : UTC 2020-01-16 02:36:38
    Writing application         : mkvmerge v38.0.0 ('The Silent Type') 64-bit
    Writing library             : libebml v1.3.9 + libmatroska v1.5.2
    Attachments                 : CINEMANIAHD.png

    Video
    ID                          : 1
    Format                      : HEVC
    Format/Info                 : High Efficiency Video Coding
    Commercial name             : HDR10
    Format profile              : Main 10@L5.1@High
    Codec ID                    : V_MPEGH/ISO/HEVC
    Duration                    : 1 h 45 min
    Bit rate                    : 18.1 Mb/s
    Width                       : 3 840 pixels
    Height                      : 2 076 pixels
    Display aspect ratio        : 1.85:1
    Frame rate mode             : Constant
    Frame rate                  : 23.976 (24000/1001) FPS
    Color space                 : YUV
    Chroma subsampling          : 4:2:0 (Type 2)
    Bit depth                   : 10 bits
    Bits/(Pixel*Frame)          : 0.095
    Stream size                 : 13.4 GiB (89%)
    Title                       : 2160p HDR [Bluray]
    Writing library             : x265 3.2+29-c5ff72937e9c:[Windows][GCC 9.2.1][64 bit] 10bit
    Encoding settings           : cpuid=1111039 / frame-threads=6 / numa-pools=32 / wpp / no-pmode / no-pme / no-psnr / no-ssim / log-level=2 / input-csp=1 / input-res=3840x2076 / interlace=0 / total-frames=152351 / level-idc=51 / high-tier=1 / uhd-bd=0 / ref=4 / no-allow-non-conformance / repeat-headers / annexb / aud / hrd / info / hash=0 / no-temporal-layers / no-open-gop / min-keyint=1 / keyint=24 / gop-lookahead=0 / bframes=4 / b-adapt=2 / b-pyramid / bframe-bias=0 / rc-lookahead=25 / lookahead-slices=4 / scenecut=40 / hist-scenecut=0 / radl=0 / no-splice / no-intra-refresh / ctu=64 / min-cu-size=8 / rect / no-amp / max-tu-size=32 / tu-inter-depth=1 / tu-intra-depth=1 / limit-tu=0 / rdoq-level=2 / dynamic-rd=0.00 / no-ssim-rd / signhide / no-tskip / nr-intra=0 / nr-inter=0 / no-constrained-intra / no-strong-intra-smoothing / max-merge=3 / limit-refs=3 / limit-modes / me=3 / subme=3 / merange=57 / temporal-mvp / no-frame-dup / no-hme / weightp / no-weightb / no-analyze-src-pics / deblock=-3:-3 / no-sao / no-sao-non-deblock / rd=4 / selective-sao=0 / no-early-skip / rskip / no-fast-intra / no-tskip-fast / no-cu-lossless / no-b-intra / no-splitrd-skip / rdpenalty=0 / psy-rd=2.00 / psy-rdoq=1.00 / no-rd-refine / no-lossless / cbqpoffs=0 / crqpoffs=0 / rc=crf / crf=17.0 / qcomp=0.60 / qpstep=4 / stats-write=0 / stats-read=0 / vbv-maxrate=160000 / vbv-bufsize=160000 / vbv-init=0.9 / crf-max=0.0 / crf-min=0.0 / ipratio=1.40 / pbratio=1.30 / aq-mode=2 / aq-strength=1.00 / cutree / zone-count=0 / no-strict-cbr / qg-size=32 / no-rc-grain / qpmax=69 / qpmin=0 / no-const-vbv / sar=1 / overscan=0 / videoformat=5 / range=0 / colorprim=9 / transfer=16 / colormatrix=9 / chromaloc=1 / chromaloc-top=2 / chromaloc-bottom=2 / display-window=0 / master-display=G(13250,34500)B(7500,3000)R(34000,16000)WP(15635,16450)L(40000000,10) / cll=998,236 / min-luma=0 / max-luma=1023 / log2-max-poc-lsb=8 / vui-timing-info / vui-hrd-info / slices=1 / no-opt-qp-pps / no-opt-ref-list-length-pps / no-multi-pass-opt-rps / scenecut-bias=0.05 / hist-threshold=0.01 / no-opt-cu-delta-qp / no-aq-motion / hdr10 / hdr10-opt / no-dhdr10-opt / no-idr-recovery-sei / analysis-reuse-level=5 / scale-factor=0 / refine-intra=0 / refine-inter=0 / refine-mv=1 / refine-ctu-distortion=0 / no-limit-sao / ctu-info=0 / no-lowpass-dct / refine-analysis-type=0 / copy-pic=1 / max-ausize-factor=1.0 / no-dynamic-refine / no-single-sei / no-hevc-aq / no-svt / no-field / qp-adaptation-range=1.00 / no-scenecut-aware-qp
    Default                     : Yes
    Forced                      : Yes
    Color range                 : Limited
    Color primaries             : BT.2020
    Transfer characteristics    : PQ
    Matrix coefficients         : BT.2020 non-constant
    Mastering display color pri : Display P3
    Mastering display luminance : min: 0.0010 cd/m2, max: 4000 cd/m2
    Maximum Content Light Level : 998 cd/m2
    Maximum Frame-Average Light : 236 cd/m2

    Audio #1
    ID                          : 2
    Format                      : E-AC-3
    Format/Info                 : Enhanced AC-3
    Commercial name             : Dolby Digital Plus
    Format profile              : Blu-ray Disc
    Codec ID                    : A_EAC3
    Duration                    : 1 h 45 min
    Bit rate mode               : Constant
    Bit rate                    : 1 024 kb/s
    Channel(s)                  : 8 channels
    Channel layout              : L R C LFE Ls Rs Lb Rb
    Sampling rate               : 48.0 kHz
    Frame rate                  : 31.250 FPS (1536 SPF)
    Compression mode            : Lossy
    Stream size                 : 776 MiB (5%)
    Title                       : DDP_7.1_Bluray_Esp
    Language                    : Spanish
    Service kind                : Complete Main
    Default                     : Yes
    Forced                      : Yes

    Audio #2
    ID                          : 3
    Format                      : AC-3
    Format/Info                 : Audio Coding 3
    Commercial name             : Dolby Digital
    Codec ID                    : A_AC3
    Duration                    : 1 h 45 min
    Bit rate mode               : Constant
    Bit rate                    : 640 kb/s
    Channel(s)                  : 6 channels
    Channel layout              : L R C LFE Ls Rs
    Sampling rate               : 48.0 kHz
    Frame rate                  : 31.250 FPS (1536 SPF)
    Bit depth                   : 16 bits
    Compression mode            : Lossy
    Stream size                 : 485 MiB (3%)
    Title                       : AC3_5.1_Bluray_Eng
    Language                    : English
    Service kind                : Complete Main
    Default                     : No
    Forced                      : No

    Audio #3
    ID                          : 4
    Format                      : AC-3
    Format/Info                 : Audio Coding 3
    Commercial name             : Dolby Digital
    Codec ID                    : A_AC3
    Duration                    : 1 h 45 min
    Bit rate mode               : Constant
    Bit rate                    : 640 kb/s
    Channel(s)                  : 6 channels
    Channel layout              : L R C LFE Ls Rs
    Sampling rate               : 48.0 kHz
    Frame rate                  : 31.250 FPS (1536 SPF)
    Bit depth                   : 16 bits
    Compression mode            : Lossy
    Stream size                 : 485 MiB (3%)
    Title                       : AC3_5.1_Bluray_Esp
    Language                    : Spanish
    Service kind                : Complete Main
    Default                     : No
    Forced                      : No

    Text #1
    ID                          : 5
    Format                      : PGS
    Muxing mode                 : zlib
    Codec ID                    : S_HDMV/PGS
    Codec ID/Info               : Picture based subtitle format used on BDs/HD-DVDs
    Duration                    : 1 h 44 min
    Bit rate                    : 107 b/s
    Count of elements           : 8
    Stream size                 : 83.0 KiB (0%)
    Title                       : Sub_Forzados [PGS]
    Language                    : Spanish
    Default                     : Yes
    Forced                      : Yes

    Text #2
    ID                          : 6
    Format                      : PGS
    Muxing mode                 : zlib
    Codec ID                    : S_HDMV/PGS
    Codec ID/Info               : Picture based subtitle format used on BDs/HD-DVDs
    Duration                    : 1 h 44 min
    Bit rate                    : 24.1 kb/s
    Count of elements           : 2204
    Stream size                 : 18.1 MiB (0%)
    Title                       : Sub_Esp [PGS]
    Language                    : Spanish
    Default                     : No
    Forced                      : No

    Text #3
    ID                          : 7
    Format                      : PGS
    Muxing mode                 : zlib
    Codec ID                    : S_HDMV/PGS
    Codec ID/Info               : Picture based subtitle format used on BDs/HD-DVDs
    Duration                    : 1 h 44 min
    Bit rate                    : 32.4 kb/s
    Count of elements           : 2822
    Stream size                 : 24.2 MiB (0%)
    Title                       : Sub_Eng [PGS]
    Language                    : English
    Default                     : No
    Forced                      : No

    Text #4
    ID                          : 8
    Format                      : UTF-8
    Codec ID                    : S_TEXT/UTF8
    Codec ID/Info               : UTF-8 Plain Text
    Duration                    : 1 h 44 min
    Bit rate                    : 0 b/s
    Count of elements           : 4
    Stream size                 : 103 Bytes (0%)
    Title                       : Sub_Forzados
    Language                    : Spanish
    Default                     : No
    Forced                      : No

    Text #5
    ID                          : 9
    Format                      : UTF-8
    Codec ID                    : S_TEXT/UTF8
    Codec ID/Info               : UTF-8 Plain Text
    Duration                    : 1 h 44 min
    Bit rate                    : 38 b/s
    Count of elements           : 1105
    Stream size                 : 30.0 KiB (0%)
    Title                       : Sub_Esp
    Language                    : Spanish
    Default                     : No
    Forced                      : No

    Menu
    00:00:00.000                : :Chapter 01
    00:00:48.215                : :Chapter 02
    00:05:15.315                : :Chapter 03
    00:09:02.459                : :Chapter 04
    00:12:42.178                : :Chapter 05
    00:16:34.452                : :Chapter 06
    00:21:20.029                : :Chapter 07
    00:27:15.133                : :Chapter 08
    00:35:04.144                : :Chapter 09
    00:43:21.724                : :Chapter 10
    00:48:05.132                : :Chapter 11
    00:53:29.248                : :Chapter 12
    00:58:03.271                : :Chapter 13
    01:05:46.901                : :Chapter 14
    01:10:35.523                : :Chapter 15
    01:17:01.325                : :Chapter 16
    01:20:50.012                : :Chapter 17
    01:24:46.540                : :Chapter 18
    01:30:32.969                : :Chapter 19
    01:35:53.206                : :Chapter 20

  • Peso: 15.1 GiB

Sinopsis

Descargar El Libro De La Selva (2016) 4K UHD HDR Latino. Después de ser abandonado en la selva, una familia de lobos cría al pequeño cachorro humano Mowgli. Gracias a la manada de lobos, sale adelante hasta ser capaz de enfrentarse por sí mismo a los peligros de la selva. Pero con la llegada del peligroso Shere Khan, Mowgli deja de ser bien recibido. Este temible tigre, resentido por las heridas que le ha ocasionado el hombre, ha prometido eliminar toda amenaza humana en la selva. Así que a Mowgli no le queda más remedio que abandonar el único hogar que ha conocido en toda su vida. El pequeño niño humano emprenderá entonces un arriesgado y fascinante viaje de autodescubrimiento, para regresar junto a su especie, acompañado de la siempre fiel Bagheera, la pantera mentora del niño, y el despreocupado y divertido oso Baloo. Esta nueva adaptación de El Libro de la selva de Rudyard Kipling, que combina acción real con escenarios fotorrealistas y animales generados por ordenador, corre a cargo de Disney.

Audio Español Latino EAC3 7.1 + AC3 5.1 Bluray – Ingles AC3 5.1 Bluray

Ficha técnica

Video trailer de la película

Enlaces de descarga

Rip de Bluray

Descargar El Libro De La Selva (2016) 4K UHD HDR Latino




Aportes de DPeliculasHDmega la pass es:dpeliculashdmega.org Aportes de CinemaniaHD la pass es:cinemaniahdd.com
Guardado en : 4K HDR , 4K UHD , Aventura , Drama , Familia , Fantasía

Películas relacionadas

  • Willow (2022) Temporada 1 WEB-DL 1080p Latino

    Willow (2022) Temporada 1 WEB-DL 1080p Latino

    2022
    Willow (2022) Temporada 1 WEB-DL 1080p Latino

    0h 0m 2022

    Descargar Willow (2022) Temporada 1 WEB-DL 1080p Latino. Veinte años después de vencer a la reina Bavmorda,...

    Género: Action & Adventure

    Actores: Warwick Davis

  • Quantum Leap (2022) Temporada 1 WEB-DL 1080p Latino

    Quantum Leap (2022) Temporada 1 WEB-DL 1080p Latino

    2022
    Quantum Leap (2022) Temporada 1 WEB-DL 1080p Latino

    0h 43m 2022

    Han pasado 27 años desde que el Dr. Sam Beckett pisó el acelerador Quantum Leap y desapareció. Ahora...

    Director: Donald P. Bellisario

    Género: Drama

    Actores: Raymond Lee

  • Shrek 2 (2004) REMUX 4K HDR Latino – CMHDD

    Shrek 2 (2004) REMUX 4K HDR Latino – CMHDD

    2004
    Shrek 2 (2004) REMUX 4K HDR Latino – CMHDD

    1h 32m 2004

    Cuando Shrek y la princesa Fiona regresan de su luna de miel, los padres de ella los invitan a visitar...

    Director: Matt Aspbury

    Género: Animación

    Actores: Wendy Bilanski

descargar El Libro De La Selva (2016) 4K UHD HDR Latino 4K HDR 1080p gratis, El Libro De La Selva (2016) 4K UHD HDR Latino 4K HDR mega 1 link, El Libro De La Selva (2016) 4K UHD HDR Latino 4K HDR pelicula completa, descargar El Libro De La Selva (2016) 4K UHD HDR Latino 4K HDR gratis en mega.

El Libro De La Selva (2016) 4K UHD HDR Latino pelicula full hd, El Libro De La Selva (2016) 4K UHD HDR Latino mega latino, El Libro De La Selva (2016) 4K UHD HDR Latino 4k latino, El Libro De La Selva (2016) 4K UHD HDR Latino pelicula completa, El Libro De La Selva (2016) 4K UHD HDR Latino descargar gratis, descargar El Libro De La Selva (2016) 4K UHD HDR Latino pelicula latino, El Libro De La Selva (2016) 4K UHD HDR Latino 1 link mega, El Libro De La Selva (2016) 4K UHD HDR Latino 1 link google drive, El Libro De La Selva (2016) 4K UHD HDR Latino hd 1080p latino.
Comentarios 0