×

¿Problemas para descargar con Mozilla, EDGE? Deshabilita la opción "Abrir vinculos en una pestaña nueva" tal como lo muestra ésta imagen.

The Jinx (2015) Miniserie de TV REMUX 1080p Latino – CMHDD

229 vistas

Información de The Jinx (2015) Miniserie de TV REMUX 1080p Latino – CMHDD

Datos de la película

  • Calidad: Full 1080p
  • Audio: Español Latino DTS 2.0 BLURAY - Ingles DTS 5.1 BLURAY
  • Subtitulos: Español Latino PGS
  • Resolución: 1920x1080p
  • Formato: MKV
  • Codec: H.264
  • Encoder: Dracarys
  • Mediainfo: Clic para Mostrar Datos Ver
  • Format                      : Matroska
    Format version              : Version 4
    File size                   : 9.30 GiB
    Duration                    : 43 min 5 s
    Overall bit rate mode       : Variable
    Overall bit rate            : 30.9 Mb/s
    Movie name                  : The Jinx (2015) [E01] REMUX 1080p Latino - CMHDD
    Encoded date                : UTC 2021-01-03 19:57:21
    Writing application         : mkvmerge v51.0.0 ('I Wish') 64-bit
    Writing library             : libebml v1.4.0 + libmatroska v1.6.2

    Video
    ID                          : 1
    Format                      : AVC
    Format/Info                 : Advanced Video Codec
    Format profile              : High@L4.1
    Format settings             : CABAC / 4 Ref Frames
    Format settings, CABAC      : Yes
    Format settings, Reference  : 4 frames
    Codec ID                    : V_MPEG4/ISO/AVC
    Duration                    : 43 min 5 s
    Bit rate mode               : Variable
    Bit rate                    : 26.8 Mb/s
    Maximum bit rate            : 38.0 Mb/s
    Width                       : 1 920 pixels
    Height                      : 1 080 pixels
    Display aspect ratio        : 16:9
    Frame rate mode             : Constant
    Frame rate                  : 23.976 (24000/1001) FPS
    Color space                 : YUV
    Chroma subsampling          : 4:2:0
    Bit depth                   : 8 bits
    Scan type                   : Progressive
    Bits/(Pixel*Frame)          : 0.538
    Stream size                 : 8.05 GiB (87%)
    Default                     : Yes
    Forced                      : No

    Audio #1
    ID                          : 2
    Format                      : DTS XLL
    Format/Info                 : Digital Theater Systems
    Commercial name             : DTS-HD Master Audio
    Codec ID                    : A_DTS
    Duration                    : 43 min 5 s
    Bit rate mode               : Variable
    Bit rate                    : 3 357 kb/s
    Channel(s)                  : 6 channels
    Channel layout              : C L R Ls Rs LFE
    Sampling rate               : 48.0 kHz
    Frame rate                  : 93.750 FPS (512 SPF)
    Bit depth                   : 24 bits
    Compression mode            : Lossless
    Stream size                 : 1.01 GiB (11%)
    Language                    : English
    Default                     : No
    Forced                      : No

    Audio #2
    ID                          : 3
    Format                      : DTS
    Format/Info                 : Digital Theater Systems
    Codec ID                    : A_DTS
    Duration                    : 43 min 5 s
    Bit rate mode               : Constant
    Bit rate                    : 768 kb/s
    Channel(s)                  : 2 channels
    Channel layout              : Lt Rt
    Sampling rate               : 48.0 kHz
    Frame rate                  : 93.750 FPS (512 SPF)
    Bit depth                   : 24 bits
    Compression mode            : Lossy
    Stream size                 : 237 MiB (2%)
    Language                    : Spanish
    Default                     : Yes
    Forced                      : No

    Text
    ID                          : 4
    Format                      : PGS
    Muxing mode                 : zlib
    Codec ID                    : S_HDMV/PGS
    Codec ID/Info               : Picture based subtitle format used on BDs/HD-DVDs
    Duration                    : 39 min 50 s
    Bit rate                    : 55.9 kb/s
    Count of elements           : 1358
    Stream size                 : 15.9 MiB (0%)
    Language                    : Spanish
    Default                     : No
    Forced                      : No

  • Peso: 57,1 GiB Total

Sinopsis

Miniserie de TV (6 episodios). Trozos de un cádaver son encontrados en la bahía de Texas. Los investigadores siguiendo la pista dan con un millonario de una poderosa familia neoyorquina.

Ficha técnica

  • Titulo original: The Jinx: The Life and Deaths of Robert Durst
  • Fecha de lanzamiento: 08-02-2015 (US)
  • Director: Andrew Jarecki
  • Género: Documental

Video trailer de la película

Enlaces de descarga

Rip de Bluray

Descargar The Jinx (2015) Miniserie de TV REMUX 1080p Latino – CMHDD


Aportes de DPeliculasHDmega la pass es:dpeliculashdmega.org Aportes de CinemaniaHD la pass es:cinemaniahdd.com
Guardado en : Documental

Películas relacionadas

descargar The Jinx (2015) Miniserie de TV REMUX 1080p Latino – CMHDD Full 1080p 1080p gratis, The Jinx (2015) Miniserie de TV REMUX 1080p Latino – CMHDD Full 1080p mega 1 link, The Jinx (2015) Miniserie de TV REMUX 1080p Latino – CMHDD Full 1080p pelicula completa, descargar The Jinx (2015) Miniserie de TV REMUX 1080p Latino – CMHDD Full 1080p gratis en mega.

The Jinx (2015) Miniserie de TV REMUX 1080p Latino – CMHDD pelicula full hd, The Jinx (2015) Miniserie de TV REMUX 1080p Latino – CMHDD mega latino, The Jinx (2015) Miniserie de TV REMUX 1080p Latino – CMHDD 4k latino, The Jinx (2015) Miniserie de TV REMUX 1080p Latino – CMHDD pelicula completa, The Jinx (2015) Miniserie de TV REMUX 1080p Latino – CMHDD descargar gratis, descargar The Jinx (2015) Miniserie de TV REMUX 1080p Latino – CMHDD pelicula latino, The Jinx (2015) Miniserie de TV REMUX 1080p Latino – CMHDD 1 link mega, The Jinx (2015) Miniserie de TV REMUX 1080p Latino – CMHDD 1 link google drive, The Jinx (2015) Miniserie de TV REMUX 1080p Latino – CMHDD hd 1080p latino.
Comentarios 2
  • JOSE ARREOLA - 04 enero, 2021

    pongan los links publicos de esta serie no sean malos!!! 🙁

    • Dracarys - 09 enero, 2021

      solo VIP