×

¿Problemas para descargar con Mozilla, EDGE? Deshabilita la opción "Abrir vinculos en una pestaña nueva" tal como lo muestra ésta imagen.

El gigante de hierro (1999) Director’s Cut 1080p Latino-CMHDD

185 vistas

Información de El gigante de hierro (1999) Director’s Cut 1080p Latino-CMHDD

Datos de la película

  • Calidad: 1080p
  • Audio: Español Latino AC3 5.1 BLURAY - Ingles AC3 5.1 BLURAY
  • Subtitulos: Español Latino PGS
  • Resolución: 1920x800p
  • Formato: MKV
  • Codec: H.264
  • Encoder: CinefiloCool
  • Mediainfo: Clic para Mostrar Datos Ver
  • The.Iron.Giant.1999.Directors.Cut.Bluray.1080p.x264.Latino-CC@CMHDD.mkv
    Format                      : Matroska
    Format version              : Version 4
    File size                   : 3.16 GiB
    Duration                    : 1 h 29 min
    Overall bit rate            : 5 022 kb/s
    Movie name                  : The Iron Giant (1999) CinemaniaHDD.Net
    Encoded date                : UTC 2024-02-15 06:18:59
    Writing application         : mkvmerge v56.1.0 ('My Friend') 64-bit
    Writing library             : libebml v1.4.2 + libmatroska v1.6.4
    Attachments                 : CINEMANIAHD.png

    Video
    ID                          : 1
    Format                      : AVC
    Format/Info                 : Advanced Video Codec
    Format profile              : High@L4
    Format settings             : CABAC / 4 Ref Frames
    Format settings, CABAC      : Yes
    Format settings, Reference  : 4 frames
    Codec ID                    : V_MPEG4/ISO/AVC
    Duration                    : 1 h 29 min
    Bit rate                    : 3 732 kb/s
    Width                       : 1 920 pixels
    Height                      : 800 pixels
    Display aspect ratio        : 2.40:1
    Frame rate mode             : Constant
    Frame rate                  : 23.976 (24000/1001) FPS
    Color space                 : YUV
    Chroma subsampling          : 4:2:0
    Bit depth                   : 8 bits
    Scan type                   : Progressive
    Bits/(Pixel*Frame)          : 0.101
    Stream size                 : 2.35 GiB (74%)
    Title                       : Full HD1080p [CinemaniaHDD]
    Writing library             : x264 core 148 r2705 3f5ed56
    Encoding settings           : cabac=1 / ref=4 / deblock=1:1:1 / analyse=0x3:0x133 / me=tesa / subme=11 / psy=1 / psy_rd=0.40:0.00 / mixed_ref=1 / me_range=24 / chroma_me=1 / trellis=2 / 8x8dct=1 / cqm=0 / deadzone=21,11 / fast_pskip=0 / chroma_qp_offset=-2 / threads=12 / lookahead_threads=1 / sliced_threads=0 / nr=0 / decimate=1 / interlaced=0 / bluray_compat=0 / constrained_intra=0 / bframes=4 / b_pyramid=2 / b_adapt=2 / b_bias=0 / direct=3 / weightb=1 / open_gop=0 / weightp=2 / keyint=240 / keyint_min=24 / scenecut=40 / intra_refresh=0 / rc_lookahead=60 / rc=crf / mbtree=1 / crf=19.2 / qcomp=0.70 / qpmin=0 / qpmax=69 / qpstep=4 / vbv_maxrate=25000 / vbv_bufsize=25000 / crf_max=0.0 / nal_hrd=none / filler=0 / ip_ratio=1.40 / aq=2:0.60
    Default                     : Yes
    Forced                      : Yes

    Audio #1
    ID                          : 2
    Format                      : AC-3
    Format/Info                 : Audio Coding 3
    Commercial name             : Dolby Digital
    Codec ID                    : A_AC3
    Duration                    : 1 h 29 min
    Bit rate mode               : Constant
    Bit rate                    : 640 kb/s
    Channel(s)                  : 6 channels
    Channel layout              : L R C LFE Ls Rs
    Sampling rate               : 48.0 kHz
    Frame rate                  : 31.250 FPS (1536 SPF)
    Compression mode            : Lossy
    Stream size                 : 412 MiB (13%)
    Title                       : Español Latino [CinemaniaHDD]
    Language                    : Spanish
    Service kind                : Complete Main
    Default                     : Yes
    Forced                      : Yes

    Audio #2
    ID                          : 3
    Format                      : AC-3
    Format/Info                 : Audio Coding 3
    Commercial name             : Dolby Digital
    Codec ID                    : A_AC3
    Duration                    : 1 h 29 min
    Bit rate mode               : Constant
    Bit rate                    : 640 kb/s
    Channel(s)                  : 6 channels
    Channel layout              : L R C LFE Ls Rs
    Sampling rate               : 48.0 kHz
    Frame rate                  : 31.250 FPS (1536 SPF)
    Compression mode            : Lossy
    Stream size                 : 412 MiB (13%)
    Title                       : Ingles [CinemaniaHDD]
    Language                    : English
    Service kind                : Complete Main
    Default                     : No
    Forced                      : No

    Text #1
    ID                          : 4
    Format                      : PGS
    Muxing mode                 : zlib
    Codec ID                    : S_HDMV/PGS
    Codec ID/Info               : Picture based subtitle format used on BDs/HD-DVDs
    Duration                    : 1 h 29 min
    Bit rate                    : 23.4 kb/s
    Count of elements           : 1806
    Stream size                 : 15.0 MiB (0%)
    Title                       : Español-PGS [CinemaniaHDD]
    Language                    : Spanish
    Default                     : No
    Forced                      : No

    Text #2
    ID                          : 5
    Format                      : UTF-8
    Codec ID                    : S_TEXT/UTF8
    Codec ID/Info               : UTF-8 Plain Text
    Duration                    : 1 h 28 min
    Bit rate                    : 48 b/s
    Count of elements           : 1003
    Stream size                 : 31.2 KiB (0%)
    Title                       : Ingles [CinemaniaHDD]
    Language                    : English
    Default                     : No
    Forced                      : No

    Text #3
    ID                          : 6
    Format                      : UTF-8
    Codec ID                    : S_TEXT/UTF8
    Codec ID/Info               : UTF-8 Plain Text
    Duration                    : 1 h 28 min
    Bit rate                    : 0 b/s
    Count of elements           : 20
    Stream size                 : 445 Bytes (0%)
    Title                       : Forzados-SRT [CinemaniaHDD]
    Language                    : Spanish
    Default                     : Yes
    Forced                      : Yes

    Text #4
    ID                          : 7
    Format                      : UTF-8
    Codec ID                    : S_TEXT/UTF8
    Codec ID/Info               : UTF-8 Plain Text
    Duration                    : 1 h 28 min
    Bit rate                    : 40 b/s
    Count of elements           : 902
    Stream size                 : 26.1 KiB (0%)
    Title                       : Español-SRT [CinemaniaHDD]
    Language                    : Spanish
    Default                     : No
    Forced                      : No

    Menu
    00:00:00.000                : Chapter 01
    00:02:26.897                : Chapter 02
    00:06:11.538                : Chapter 03
    00:08:58.455                : Chapter 04
    00:10:31.339                : Chapter 05
    00:12:47.558                : Chapter 06
    00:14:53.935                : Chapter 07
    00:17:02.146                : Chapter 08
    00:18:55.301                : Chapter 09
    00:21:14.648                : Chapter 10
    00:24:31.929                : Chapter 11
    00:26:25.751                : Chapter 12
    00:28:33.712                : Chapter 13
    00:30:35.292                : Chapter 14
    00:32:58.226                : Chapter 15
    00:34:20.642                : Chapter 16
    00:36:49.958                : Chapter 17
    00:38:32.435                : Chapter 18
    00:41:00.958                : Chapter 19
    00:44:43.055                : Chapter 20
    00:46:29.662                : Chapter 21
    00:48:46.215                : Chapter 22
    00:51:11.652                : Chapter 23
    00:53:11.355                : Chapter 24
    00:56:07.322                : Chapter 25
    01:00:34.089                : Chapter 26
    01:03:30.473                : Chapter 27
    01:05:45.400                : Chapter 28
    01:07:39.097                : Chapter 29
    01:11:06.304                : Chapter 30
    01:12:22.213                : Chapter 31
    01:16:03.350                : Chapter 32
    01:18:43.719                : Chapter 33
    01:21:31.470                : Chapter 34

  • Peso: 3.16 GiB

Sinopsis

Descargar El gigante de hierro (1999) Director’s Cut 1080p Latino-CMHDD. En 1957, en la pequeña localidad de Rockwell, alguien ha visto cómo un enorme hombre metálico caía al mar. Un imaginativo niño descubre que se trata de un robot gigante, cuyo apetito de metal es insaciable. Entre ambos nace una fuerte amistad, pero el gobierno envía a un agente para investigar los hechos. El niño esconde a su nuevo compañero en la chatarrería de un amigo. Pero los habitantes del pueblo comienzan a sentirse aterrados porque creen que es una nueva amenaza en plena Guerra Fría.

Ficha técnica

Video trailer de la película

Enlaces de descarga

Rip de Bluray

Descargar El gigante de hierro (1999) Director’s Cut 1080p Latino-CMHDD




Aportes de DPeliculasHDmega la pass es:dpeliculashdmega.org Aportes de CinemaniaHD la pass es:cinemaniahdd.com Aportes recientes:cinemaniahdd.net

Películas relacionadas

descargar El gigante de hierro (1999) Director’s Cut 1080p Latino-CMHDD 1080p 1080p gratis, El gigante de hierro (1999) Director’s Cut 1080p Latino-CMHDD 1080p mega 1 link, El gigante de hierro (1999) Director’s Cut 1080p Latino-CMHDD 1080p pelicula completa, descargar El gigante de hierro (1999) Director’s Cut 1080p Latino-CMHDD 1080p gratis en mega.

El gigante de hierro (1999) Director’s Cut 1080p Latino-CMHDD pelicula full hd, El gigante de hierro (1999) Director’s Cut 1080p Latino-CMHDD mega latino, El gigante de hierro (1999) Director’s Cut 1080p Latino-CMHDD 4k latino, El gigante de hierro (1999) Director’s Cut 1080p Latino-CMHDD pelicula completa, El gigante de hierro (1999) Director’s Cut 1080p Latino-CMHDD descargar gratis, descargar El gigante de hierro (1999) Director’s Cut 1080p Latino-CMHDD pelicula latino, El gigante de hierro (1999) Director’s Cut 1080p Latino-CMHDD 1 link mega, El gigante de hierro (1999) Director’s Cut 1080p Latino-CMHDD 1 link google drive, El gigante de hierro (1999) Director’s Cut 1080p Latino-CMHDD hd 1080p latino.
Comentarios 0