El irlandés (2019) 4K UHD HDR Web-DL Latino

21 vistas
1 estrella2 estrellas3 estrellas4 estrellas5 estrellas (Ninguna valoración todavía)
Cargando...

Información de El irlandés (2019) 4K UHD HDR Web-DL Latino

Datos de la película

  • Calidad: WEBDL
  • Audio: Español Latino E-AC3 5.1 Netflix - Ingles E-AC3 5.1 Netflix
  • Subtitulos: Español Latino SRT - Ingles SRT
  • Resolución: 3840x2080p
  • Formato: MKV
  • Codec: HEVC
  • Encoder: CinefiloCool
  • Mediainfo: Clic para Mostrar Datos Ver
  • El Irlandes (2019) UHD HDR WEB LatinoCMHDD.mkv
    Format                      : Matroska
    Format version              : Version 4
    File size                   : 27.2 GiB
    Duration                    : 3 h 29 min
    Overall bit rate            : 18.6 Mb/s
    Movie name                  : The Irishman (2019) CinemaniaHDD.Net
    Encoded date                : UTC 2020-11-18 03:53:51
    Writing application         : mkvmerge v51.0.0 ('I Wish') 64-bit
    Writing library             : libebml v1.4.0 + libmatroska v1.6.2
    Attachments                 : CINEMANIAHD.png

    Video
    ID                          : 1
    Format                      : HEVC
    Format/Info                 : High Efficiency Video Coding
    Format profile              : Main 10@L6@High
    HDR format                  : SMPTE ST 2086, HDR10 compatible
    Codec ID                    : V_MPEGH/ISO/HEVC
    Duration                    : 3 h 28 min
    Bit rate                    : 17.3 Mb/s
    Width                       : 3 840 pixels
    Height                      : 2 080 pixels
    Display aspect ratio        : 1.85:1
    Frame rate mode             : Constant
    Frame rate                  : 24.000 FPS
    Color space                 : YUV
    Chroma subsampling          : 4:2:0 (Type 2)
    Bit depth                   : 10 bits
    Bits/(Pixel*Frame)          : 0.090
    Stream size                 : 25.1 GiB (92%)
    Title                       : Web 2160p HDR [CinemaniaHDD]
    Default                     : Yes
    Forced                      : No
    Color range                 : Limited
    Color primaries             : BT.2020
    Transfer characteristics    : PQ
    Matrix coefficients         : BT.2020 non-constant
    Mastering display color pri : Display P3
    Mastering display luminance : min: 0.0001 cd/m2, max: 1000 cd/m2
    Maximum Content Light Level : 1014 cd/m2
    Maximum Frame-Average Light : 263 cd/m2

    Audio #1
    ID                          : 2
    Format                      : E-AC-3
    Format/Info                 : Enhanced AC-3
    Commercial name             : Dolby Digital Plus
    Codec ID                    : A_EAC3
    Duration                    : 3 h 29 min
    Bit rate mode               : Constant
    Bit rate                    : 640 kb/s
    Channel(s)                  : 6 channels
    Channel layout              : L R C LFE Ls Rs
    Sampling rate               : 48.0 kHz
    Frame rate                  : 31.250 FPS (1536 SPF)
    Compression mode            : Lossy
    Delay relative to video     : 14 ms
    Stream size                 : 958 MiB (3%)
    Title                       : Español Latino [CinemaniaHDD]
    Language                    : Spanish
    Service kind                : Complete Main
    Default                     : Yes
    Forced                      : No

    Audio #2
    ID                          : 3
    Format                      : E-AC-3 JOC
    Format/Info                 : Enhanced AC-3 with Joint Object Coding
    Commercial name             : Dolby Digital Plus with Dolby Atmos
    Codec ID                    : A_EAC3
    Duration                    : 3 h 28 min
    Bit rate mode               : Constant
    Bit rate                    : 768 kb/s
    Channel(s)                  : 6 channels
    Channel layout              : L R C LFE Ls Rs
    Sampling rate               : 48.0 kHz
    Frame rate                  : 31.250 FPS (1536 SPF)
    Compression mode            : Lossy
    Stream size                 : 1.12 GiB (4%)
    Title                       : Ingles [CinemaniaHDD]
    Language                    : English
    Service kind                : Complete Main
    Default                     : No
    Forced                      : No
    Complexity index            : 16
    Number of dynamic objects   : 15
    Bed channel count           : 1 channel
    Bed channel configuration   : LFE

    Text #1
    ID                          : 4
    Format                      : UTF-8
    Codec ID                    : S_TEXT/UTF8
    Codec ID/Info               : UTF-8 Plain Text
    Duration                    : 3 h 17 min
    Bit rate                    : 1 b/s
    Count of elements           : 40
    Stream size                 : 1.51 KiB (0%)
    Title                       : Forzados-SRT [CinemaniaHDD]
    Language                    : Spanish
    Default                     : Yes
    Forced                      : Yes

    Text #2
    ID                          : 5
    Format                      : UTF-8
    Codec ID                    : S_TEXT/UTF8
    Codec ID/Info               : UTF-8 Plain Text
    Duration                    : 3 h 27 min
    Bit rate                    : 72 b/s
    Count of elements           : 3089
    Stream size                 : 111 KiB (0%)
    Title                       : Español-SRT [CinemaniaHDD]
    Language                    : Spanish
    Default                     : No
    Forced                      : No

    Text #3
    ID                          : 6
    Format                      : UTF-8
    Codec ID                    : S_TEXT/UTF8
    Codec ID/Info               : UTF-8 Plain Text
    Duration                    : 3 h 20 min
    Bit rate                    : 83 b/s
    Count of elements           : 3813
    Stream size                 : 123 KiB (0%)
    Title                       : Ingles-SRT [CinemaniaHDD]
    Language                    : English
    Default                     : No
    Forced                      : No

  • Peso: 27.2 GiB

Sinopsis

Descargar El irlandés (2019) 4K UHD HDR Web-DL Latino. Pennsylvania, 1956. Frank Sheeran, un veterano de guerra de origen irlandés que trabaja como camionero, conoce accidentalmente al mafioso Russell Bufalino. Una vez convertido en su hombre de confianza, Bufalino envía a Frank a Chicago con el encargo de ayudar a Jimmy Hoffa, un poderoso líder sindical relacionado con el crimen organizado, con quien Frank mantendrá una estrecha amistad durante casi veinte años.

Ficha técnica

Video trailer de la película

Enlaces de descarga

Rip de Bluray

Descargar El irlandés (2019) 4K UHD HDR Web-DL Latino




Aportes de DPeliculasHDmega la pass es:dpeliculashdmega.org Aportes de CinemaniaHD la pass es:cinemaniahdd.com
Guardado en : 4K HDR , 4K UHD , Crimen , Drama , Historia

Películas relacionadas

  • La Chica Del Tren (2016) 1080p Latino

    La Chica Del Tren (2016) 1080p Latino

    2016
    La Chica Del Tren (2016) 1080p Latino

    0.0 1h 52m 2016

    Descargar La Chica Del Tren (2016) 1080p Latino. Rachel (Emily Blunt) es una mujer devastada por su reciente...

    Director: Tate Taylor

    Género: Crimen

    Actores: Tim Wiencis

  • La Chica Del Tren (2016) Full HD 1080p Latino

    La Chica Del Tren (2016) Full HD 1080p Latino

    2016
    La Chica Del Tren (2016) Full HD 1080p Latino

    4.5 2h 0m 2016

    Descargar La Chica Del Tren (2016) Full HD 1080p Latino. Rachel (Emily Blunt) es una mujer devastada...

    Director: Tate Taylor

    Género: Actualizadas

    Actores: Tod Rainey

  • La Chica Del Tren (2016) REMUX 1080p Latino

    La Chica Del Tren (2016) REMUX 1080p Latino

    2016
    La Chica Del Tren (2016) REMUX 1080p Latino

    5.0 1h 52m 2016

    Descargar La Chica Del Tren (2016) REMUX 1080p Latino. Rachel (Emily Blunt) es una mujer devastada por...

    Director: Tate Taylor

    Género: Crimen

    Actores: Tod Rainey

  • La Chica Del Tren (2016) 4K UHD HDR Latino

    La Chica Del Tren (2016) 4K UHD HDR Latino

    2016
    La Chica Del Tren (2016) 4K UHD HDR Latino

    0.0 1h 52m 2016

    Descargar La Chica Del Tren (2016) 4K UHD HDR Latino. Rachel (Emily Blunt) es una mujer devastada por...

    Director: Tate Taylor

    Género: 4K HDR

    Actores: Tim Wiencis

Comentarios 0