El irlandés (2019) Full HD 1080p Latino

16 vistas
1 estrella2 estrellas3 estrellas4 estrellas5 estrellas (Ninguna valoración todavía)
Cargando...

Información de El irlandés (2019) Full HD 1080p Latino

Datos de la película

  • Calidad: Full 1080p
  • Audio: Se especifica abajo de la Sinopsis
  • Subtitulos: Español Latino SRT- FORZADOS SRT
  • Resolución: 1920x1080p
  • Formato: MKV
  • Codec: H.264
  • Encoder: CinefiloCool
  • Mediainfo: Clic para Mostrar Datos Ver
  • El Irlandes (2019) CC Full HD 1080p Latino-CMHDD.mkv
    Format                      : Matroska
    Format version              : Version 4
    File size                   : 19.1 GiB
    Duration                    : 3 h 29 min
    Overall bit rate mode       : Variable
    Overall bit rate            : 13.1 Mb/s
    Movie name                  : The Irishman (2019) CinemaniaHDD.Net
    Encoded date                : UTC 2020-11-19 03:27:01
    Writing application         : mkvmerge v51.0.0 ('I Wish') 64-bit
    Writing library             : libebml v1.4.0 + libmatroska v1.6.2
    Attachments                 : CINEMANIAHD.png

    Video
    ID                          : 1
    Format                      : AVC
    Format/Info                 : Advanced Video Codec
    Format profile              : High@L4.1
    Format settings             : CABAC / 4 Ref Frames
    Format settings, CABAC      : Yes
    Format settings, Reference  : 4 frames
    Codec ID                    : V_MPEG4/ISO/AVC
    Duration                    : 3 h 29 min
    Bit rate                    : 7 736 kb/s
    Width                       : 1 920 pixels
    Height                      : 1 080 pixels
    Display aspect ratio        : 16:9
    Frame rate mode             : Constant
    Frame rate                  : 23.976 (24000/1001) FPS
    Color space                 : YUV
    Chroma subsampling          : 4:2:0
    Bit depth                   : 8 bits
    Scan type                   : Progressive
    Bits/(Pixel*Frame)          : 0.156
    Stream size                 : 11.3 GiB (59%)
    Title                       : Full  HD1080p [CinemaniaHDD]
    Writing library             : x264 core 157 r2935 545de2f
    Encoding settings           : cabac=1 / ref=4 / deblock=1:0:0 / analyse=0x3:0x133 / me=tesa / subme=11 / psy=1 / psy_rd=1.00:0.00 / mixed_ref=1 / me_range=24 / chroma_me=1 / trellis=2 / 8x8dct=1 / cqm=0 / deadzone=21,11 / fast_pskip=0 / chroma_qp_offset=-2 / threads=24 / lookahead_threads=6 / sliced_threads=0 / nr=0 / decimate=1 / interlaced=0 / bluray_compat=0 / constrained_intra=0 / bframes=16 / b_pyramid=2 / b_adapt=2 / b_bias=0 / direct=3 / weightb=1 / open_gop=0 / weightp=2 / keyint=240 / keyint_min=24 / scenecut=40 / intra_refresh=0 / rc_lookahead=60 / rc=crf / mbtree=1 / crf=20.0 / qcomp=0.60 / qpmin=0 / qpmax=69 / qpstep=4 / vbv_maxrate=62500 / vbv_bufsize=78125 / crf_max=0.0 / nal_hrd=none / filler=0 / ip_ratio=1.40 / aq=1:1.00
    Default                     : Yes
    Forced                      : Yes
    Color range                 : Limited
    Color primaries             : BT.709
    Transfer characteristics    : BT.709
    Matrix coefficients         : BT.709

    Audio #1
    ID                          : 2
    Format                      : AC-3
    Format/Info                 : Audio Coding 3
    Commercial name             : Dolby Digital
    Codec ID                    : A_AC3
    Duration                    : 3 h 29 min
    Bit rate mode               : Constant
    Bit rate                    : 640 kb/s
    Channel(s)                  : 6 channels
    Channel layout              : L R C LFE Ls Rs
    Sampling rate               : 48.0 kHz
    Frame rate                  : 31.250 FPS (1536 SPF)
    Compression mode            : Lossy
    Stream size                 : 957 MiB (5%)
    Title                       : Español Latino [CinemaniaHDD]
    Language                    : Spanish
    Service kind                : Complete Main
    Default                     : Yes
    Forced                      : Yes

    Audio #2
    ID                          : 3
    Format                      : MLP FBA 16-ch
    Format/Info                 : Meridian Lossless Packing FBA with 16-channel presentation
    Commercial name             : Dolby TrueHD with Dolby Atmos
    Codec ID                    : A_TRUEHD
    Duration                    : 3 h 29 min
    Bit rate mode               : Variable
    Bit rate                    : 4 164 kb/s
    Maximum bit rate            : 7 932 kb/s
    Channel(s)                  : 8 channels
    Channel layout              : L R C LFE Ls Rs Lb Rb
    Sampling rate               : 48.0 kHz
    Frame rate                  : 1 200.000 FPS (40 SPF)
    Compression mode            : Lossless
    Stream size                 : 6.08 GiB (32%)
    Title                       : Ingles THD [CinemaniaHDD]
    Language                    : English
    Default                     : No
    Forced                      : No
    Number of dynamic objects   : 15
    Bed channel count           : 1 channel
    Bed channel configuration   : LFE

    Audio #3
    ID                          : 4
    Format                      : AC-3
    Format/Info                 : Audio Coding 3
    Commercial name             : Dolby Digital
    Codec ID                    : A_AC3
    Duration                    : 3 h 29 min
    Bit rate mode               : Constant
    Bit rate                    : 448 kb/s
    Channel(s)                  : 6 channels
    Channel layout              : L R C LFE Ls Rs
    Sampling rate               : 48.0 kHz
    Frame rate                  : 31.250 FPS (1536 SPF)
    Compression mode            : Lossy
    Stream size                 : 670 MiB (3%)
    Title                       : Ingles AC3 [CinemaniaHDD]
    Language                    : English
    Service kind                : Complete Main
    Default                     : No
    Forced                      : No

    Text #1
    ID                          : 5
    Format                      : UTF-8
    Codec ID                    : S_TEXT/UTF8
    Codec ID/Info               : UTF-8 Plain Text
    Duration                    : 3 h 17 min
    Bit rate                    : 1 b/s
    Count of elements           : 40
    Stream size                 : 1.51 KiB (0%)
    Title                       : Forzados-SRT [CinemaniaHDD]
    Language                    : Spanish
    Default                     : Yes
    Forced                      : Yes

    Text #2
    ID                          : 6
    Format                      : UTF-8
    Codec ID                    : S_TEXT/UTF8
    Codec ID/Info               : UTF-8 Plain Text
    Duration                    : 3 h 26 min
    Bit rate                    : 73 b/s
    Count of elements           : 3088
    Stream size                 : 111 KiB (0%)
    Title                       : Español-SRT [CinemaniaHDD]
    Language                    : Spanish
    Default                     : No
    Forced                      : No

    Text #3
    ID                          : 7
    Format                      : PGS
    Muxing mode                 : zlib
    Codec ID                    : S_HDMV/PGS
    Codec ID/Info               : Picture based subtitle format used on BDs/HD-DVDs
    Duration                    : 3 h 27 min
    Bit rate                    : 69.7 kb/s
    Count of elements           : 7480
    Stream size                 : 103 MiB (1%)
    Title                       : Ingles-PGS [CinemaniaHDD]
    Language                    : English
    Default                     : No
    Forced                      : No

    Menu
    00:00:00.000                : en:"I Heard You Paint Houses"
    00:04:37.736                : en:Texaco Station
    00:08:42.272                : en:Hindquarters For Skinny Razor
    00:12:11.648                : en:Frank Meets With Bill Bufalino
    00:17:37.014                : en:"Russel Took A Shine To Me"
    00:25:13.554                : en:Frank Takes Care Of Business
    00:29:41.071                : en:Cadillac Linen
    00:39:21.442                : en:"Everything Changed After Whispers"
    00:46:31.622                : en:James Riddle Hoffa
    00:54:23.010                : en:"Because Of Mr. Hoffa"
    00:59:44.289                : en:The Kennedys
    01:11:16.439                : en:The Teamsters
    01:22:17.933                : en:"You Charge A Guy With A Gun"
    01:31:00.622                : en:Jimmy Goes To College
    01:38:54.428                : en:"Who Does Something Like That?"
    01:48:45.519                : en:Jimmy Needs Pro
    01:58:00.865                : en:"He's A Fucking Hothead"
    02:07:42.238                : en:Frank Sheeran Appreciation Night
    02:13:30.753                : en:"It's What It Is"
    02:24:02.551                : en:Change Of Plans
    02:31:10.812                : en:"I Had To Put You Into This Thing"
    02:34:28.384                : en:"Never Put A Fish In Your Car"
    02:50:18.208                : en:Hoffa's Disappearance
    02:55:26.391                : en:"Everybody Took The Fifth"
    03:04:12.250                : en:Frank At The End Of His Life
    03:13:43.362                : en:Absolution
    03:19:20.574                : en:End Credits

  • Peso: 19.1 GiB

Sinopsis

Descargar El irlandés (2019) Full HD 1080p Latino. Pennsylvania, 1956. Frank Sheeran, un veterano de guerra de origen irlandés que trabaja como camionero, conoce accidentalmente al mafioso Russell Bufalino. Una vez convertido en su hombre de confianza, Bufalino envía a Frank a Chicago con el encargo de ayudar a Jimmy Hoffa, un poderoso líder sindical relacionado con el crimen organizado, con quien Frank mantendrá una estrecha amistad durante casi veinte años.

Audio Español Latino AC3 5.1 NF – Ingles TrueHD 7.1 + AC3 5.1 Bluray

Ficha técnica

Video trailer de la película

Enlaces de descarga

Rip de Bluray

Descargar El irlandés (2019) Full HD 1080p Latino




Aportes de DPeliculasHDmega la pass es:dpeliculashdmega.org Aportes de CinemaniaHD la pass es:cinemaniahdd.com

Películas relacionadas

  • La Chica Del Tren (2016) 1080p Latino

    La Chica Del Tren (2016) 1080p Latino

    2016
    La Chica Del Tren (2016) 1080p Latino

    0.0 1h 52m 2016

    Descargar La Chica Del Tren (2016) 1080p Latino. Rachel (Emily Blunt) es una mujer devastada por su reciente...

    Director: Tate Taylor

    Género: Crimen

    Actores: Tim Wiencis

  • La Chica Del Tren (2016) Full HD 1080p Latino

    La Chica Del Tren (2016) Full HD 1080p Latino

    2016
    La Chica Del Tren (2016) Full HD 1080p Latino

    4.5 2h 0m 2016

    Descargar La Chica Del Tren (2016) Full HD 1080p Latino. Rachel (Emily Blunt) es una mujer devastada...

    Director: Tate Taylor

    Género: Actualizadas

    Actores: Tod Rainey

  • La Chica Del Tren (2016) REMUX 1080p Latino

    La Chica Del Tren (2016) REMUX 1080p Latino

    2016
    La Chica Del Tren (2016) REMUX 1080p Latino

    5.0 1h 52m 2016

    Descargar La Chica Del Tren (2016) REMUX 1080p Latino. Rachel (Emily Blunt) es una mujer devastada por...

    Director: Tate Taylor

    Género: Crimen

    Actores: Tod Rainey

  • La Chica Del Tren (2016) 4K UHD HDR Latino

    La Chica Del Tren (2016) 4K UHD HDR Latino

    2016
    La Chica Del Tren (2016) 4K UHD HDR Latino

    0.0 1h 52m 2016

    Descargar La Chica Del Tren (2016) 4K UHD HDR Latino. Rachel (Emily Blunt) es una mujer devastada por...

    Director: Tate Taylor

    Género: 4K HDR

    Actores: Tim Wiencis

Comentarios 0