El hombre invisible (2020) PLACEBO Full HD 1080p Latino

40 vistas
1 estrella2 estrellas3 estrellas4 estrellas5 estrellas (2 votos, promedio: 5,00 de 5)
Cargando…

Información de El hombre invisible (2020) PLACEBO Full HD 1080p Latino

Datos de la película

  • Calidad: Full 1080p
  • Audio: Se especifica abajo de la Sinopsis
  • Subtitulos: Español Latino PGS - Ingles PGS
  • Resolución: 1920x1080p
  • Formato: MKV
  • Codec: H.264
  • Encoder: Melkor
  • Mediainfo: Clic para Mostrar Datos Ver
  • El Hombre Invisible (2020) PLACEBO Full HD 1080p Latino.mkv
    Format                      : Matroska
    Format version              : Version 4
    File size                   : 6.33 GiB
    Duration                    : 2 h 4 min
    Overall bit rate mode       : Variable
    Overall bit rate            : 7 280 kb/s
    Movie name                  : The Invisible Man (2020) CinemaniaHDD.Net
    Encoded date                : UTC 2020-05-16 02:16:43
    Writing application         : mkvmerge v42.0.0 ('Overtime') 64-bit
    Writing library             : libebml v1.3.10 + libmatroska v1.5.2
    Attachments                 : CINEMANIAHD.png

    Video
    ID                          : 1
    Format                      : AVC
    Format/Info                 : Advanced Video Codec
    Format profile              : High@L4.1
    Format settings             : CABAC / 4 Ref Frames
    Format settings, CABAC      : Yes
    Format settings, Reference  : 4 frames
    Codec ID                    : V_MPEG4/ISO/AVC
    Duration                    : 2 h 4 min
    Bit rate                    : 2 292 kb/s
    Width                       : 1 920 pixels
    Height                      : 1 080 pixels
    Display aspect ratio        : 16:9
    Frame rate mode             : Constant
    Frame rate                  : 23.976 (24000/1001) FPS
    Color space                 : YUV
    Chroma subsampling          : 4:2:0
    Bit depth                   : 8 bits
    Scan type                   : Progressive
    Bits/(Pixel*Frame)          : 0.046
    Stream size                 : 1.99 GiB (31%)
    Title                       : Full HD1080p [CinemaniaHDD]
    Writing library             : x264 core 157 r2935 545de2f
    Encoding settings           : cabac=1 / ref=4 / deblock=1:0:0 / analyse=0x3:0x133 / me=tesa / subme=11 / psy=1 / psy_rd=1.00:0.00 / mixed_ref=1 / me_range=24 / chroma_me=1 / trellis=2 / 8x8dct=1 / cqm=0 / deadzone=21,11 / fast_pskip=0 / chroma_qp_offset=-2 / threads=34 / lookahead_threads=8 / sliced_threads=0 / nr=0 / decimate=1 / interlaced=0 / bluray_compat=0 / constrained_intra=0 / bframes=16 / b_pyramid=2 / b_adapt=2 / b_bias=0 / direct=3 / weightb=1 / open_gop=0 / weightp=2 / keyint=240 / keyint_min=24 / scenecut=40 / intra_refresh=0 / rc_lookahead=60 / rc=crf / mbtree=1 / crf=19.0 / qcomp=0.60 / qpmin=0 / qpmax=69 / qpstep=4 / vbv_maxrate=62500 / vbv_bufsize=78125 / crf_max=0.0 / nal_hrd=none / filler=0 / ip_ratio=1.40 / aq=1:1.00
    Default                     : Yes
    Forced                      : Yes
    Color range                 : Limited
    Color primaries             : BT.709
    Transfer characteristics    : BT.709
    Matrix coefficients         : BT.709

    Audio #1
    ID                          : 2
    Format                      : E-AC-3
    Format/Info                 : Enhanced AC-3
    Commercial name             : Dolby Digital Plus
    Format profile              : Blu-ray Disc
    Codec ID                    : A_EAC3
    Duration                    : 2 h 4 min
    Bit rate mode               : Constant
    Bit rate                    : 768 kb/s
    Channel(s)                  : 8 channels
    Channel layout              : L R C LFE Ls Rs Lb Rb
    Sampling rate               : 48.0 kHz
    Frame rate                  : 31.250 FPS (1536 SPF)
    Compression mode            : Lossy
    Stream size                 : 683 MiB (11%)
    Title                       : Español Latino [CinemaniaHDD]
    Language                    : Spanish
    Service kind                : Complete Main
    Default                     : Yes
    Forced                      : Yes

    Audio #2
    ID                          : 3
    Format                      : MLP FBA 16-ch
    Format/Info                 : Meridian Lossless Packing FBA with 16-channel presentation
    Commercial name             : Dolby TrueHD with Dolby Atmos
    Codec ID                    : A_TRUEHD
    Duration                    : 2 h 4 min
    Bit rate mode               : Variable
    Bit rate                    : 3 050 kb/s
    Maximum bit rate            : 5 652 kb/s
    Channel(s)                  : 8 channels
    Channel layout              : L R C LFE Ls Rs Lb Rb
    Sampling rate               : 48.0 kHz
    Frame rate                  : 1 200.000 FPS (40 SPF)
    Compression mode            : Lossless
    Stream size                 : 2.65 GiB (42%)
    Title                       : Ingles [CinemaniaHDD]
    Language                    : English
    Default                     : No
    Forced                      : No
    Number of dynamic objects   : 11
    Bed channel count           : 1 channel
    Bed channel configuration   : LFE

    Audio #3
    ID                          : 4
    Format                      : AC-3
    Format/Info                 : Audio Coding 3
    Commercial name             : Dolby Digital
    Codec ID                    : A_AC3
    Duration                    : 2 h 4 min
    Bit rate mode               : Constant
    Bit rate                    : 448 kb/s
    Channel(s)                  : 6 channels
    Channel layout              : L R C LFE Ls Rs
    Sampling rate               : 48.0 kHz
    Frame rate                  : 31.250 FPS (1536 SPF)
    Compression mode            : Lossy
    Stream size                 : 399 MiB (6%)
    Title                       : Español Latino AC3 [CinemaniaHDD]
    Language                    : Spanish
    Service kind                : Complete Main
    Default                     : No
    Forced                      : No

    Audio #4
    ID                          : 5
    Format                      : AC-3
    Format/Info                 : Audio Coding 3
    Commercial name             : Dolby Digital
    Codec ID                    : A_AC3
    Duration                    : 2 h 4 min
    Bit rate mode               : Constant
    Bit rate                    : 640 kb/s
    Channel(s)                  : 6 channels
    Channel layout              : L R C LFE Ls Rs
    Sampling rate               : 48.0 kHz
    Frame rate                  : 31.250 FPS (1536 SPF)
    Compression mode            : Lossy
    Stream size                 : 569 MiB (9%)
    Title                       : Ingles AC3 [CinemaniaHDD]
    Language                    : English
    Service kind                : Complete Main
    Default                     : No
    Forced                      : No

    Text #1
    ID                          : 6
    Format                      : PGS
    Muxing mode                 : zlib
    Codec ID                    : S_HDMV/PGS
    Codec ID/Info               : Picture based subtitle format used on BDs/HD-DVDs
    Duration                    : 2 h 3 min
    Bit rate                    : 620 b/s
    Count of elements           : 52
    Stream size                 : 559 KiB (0%)
    Title                       : Forzados-PGS [CinemaniaHDD]
    Language                    : Spanish
    Default                     : Yes
    Forced                      : Yes

    Text #2
    ID                          : 7
    Format                      : PGS
    Muxing mode                 : zlib
    Codec ID                    : S_HDMV/PGS
    Codec ID/Info               : Picture based subtitle format used on BDs/HD-DVDs
    Duration                    : 2 h 3 min
    Bit rate                    : 17.0 kb/s
    Count of elements           : 1792
    Stream size                 : 15.0 MiB (0%)
    Title                       : Español-PGS [CinemaniaHDD]
    Language                    : Spanish
    Default                     : No
    Forced                      : No

    Text #3
    ID                          : 8
    Format                      : PGS
    Muxing mode                 : zlib
    Codec ID                    : S_HDMV/PGS
    Codec ID/Info               : Picture based subtitle format used on BDs/HD-DVDs
    Duration                    : 1 h 50 min
    Bit rate                    : 24.9 kb/s
    Count of elements           : 2096
    Stream size                 : 19.6 MiB (0%)
    Title                       : Ingles-PGS [CinemaniaHDD]
    Language                    : English
    Default                     : No
    Forced                      : No

    Text #4
    ID                          : 9
    Format                      : UTF-8
    Codec ID                    : S_TEXT/UTF8
    Codec ID/Info               : UTF-8 Plain Text
    Duration                    : 2 h 3 min
    Bit rate                    : 0 b/s
    Count of elements           : 25
    Stream size                 : 768 Bytes (0%)
    Title                       : Forzados-SRT [CinemaniaHDD]
    Language                    : Spanish
    Default                     : No
    Forced                      : No

    Text #5
    ID                          : 10
    Format                      : UTF-8
    Codec ID                    : S_TEXT/UTF8
    Codec ID/Info               : UTF-8 Plain Text
    Duration                    : 2 h 3 min
    Bit rate                    : 27 b/s
    Count of elements           : 895
    Stream size                 : 24.5 KiB (0%)
    Title                       : Español-SRT [CinemaniaHDD]
    Language                    : Spanish
    Default                     : No
    Forced                      : No

    Menu
    00:00:00.000                : en:Chapter 01
    00:11:05.748                : en:Chapter 02
    00:16:09.134                : en:Chapter 03
    00:19:16.321                : en:Chapter 04
    00:25:27.651                : en:Chapter 05
    00:35:52.233                : en:Chapter 06
    00:39:50.179                : en:Chapter 07
    00:46:35.459                : en:Chapter 08
    00:52:41.867                : en:Chapter 09
    01:01:22.011                : en:Chapter 10
    01:08:59.802                : en:Chapter 11
    01:14:49.735                : en:Chapter 12
    01:19:23.925                : en:Chapter 13
    01:24:46.539                : en:Chapter 14
    01:30:25.336                : en:Chapter 15
    01:35:24.927                : en:Chapter 16
    01:39:33.342                : en:Chapter 17
    01:43:04.219                : en:Chapter 18
    01:48:54.694                : en:Chapter 19
    01:53:38.812                : en:Chapter 20

  • Peso: 6.33 GiB

Sinopsis

Descargar El hombre invisible (2020) PLACEBO Full HD 1080p Latino. Cecilia (Elisabeth Moss) rehace su vida tras recibir la noticia de que su exnovio, un maltratador empedernido, ha fallecido. Sin embargo, su cordura comienza a tambalearse cuando empieza tener la certeza de que en realidad sigue vivo.

Español Latino EAC3 7.1 + AC3 5.1 Bluray – Ingles TrueHD 7.1 + AC3 5.1 Bluray

Ficha técnica

Video trailer de la película

Enlaces de descarga

Rip de Bluray

Descargar El hombre invisible (2020) PLACEBO Full HD 1080p Latino




Aportes de DPeliculasHDmega la pass es:dpeliculashdmega.org Aportes de CinemaniaHD la pass es:cinemaniahdd.com

Películas relacionadas

  • Rápido y Furioso 2 (2003) HD 1080p Latino – CMHDD

    Rápido y Furioso 2 (2003) HD 1080p Latino – CMHDD

    2003
    Rápido y Furioso 2 (2003) HD 1080p Latino – CMHDD

    0.0 1h 45m 2003

    Secuela de "A todo gas" (The Fast and the Furious). Brian O'Connor, un policía caído en desgracia,...

    Director: Terry Leonard

    Género: Acción

    Actores: Zachary L. Mann

  • Rápido y Furioso 3 (2006) Full HD 1080p Latino – CMHDD

    Rápido y Furioso 3 (2006) Full HD 1080p Latino – CMHDD

    2006
    Rápido y Furioso 3 (2006) Full HD 1080p Latino – CMHDD

    0.0 1h 44m 2006

    Shaun Boswell es un chico que no acaba de encajar en ningún grupo. Su única conexión con el mundo...

    Director: Valeria Migliassi Collins

    Género: Acción

    Actores: Zachery Ty Bryan

  • Rápido y Furioso 3 (2006) REMUX 1080p Latino – CMHDD

    Rápido y Furioso 3 (2006) REMUX 1080p Latino – CMHDD

    2006
    Rápido y Furioso 3 (2006) REMUX 1080p Latino – CMHDD

    0.0 1h 44m 2006

    Shaun Boswell es un chico que no acaba de encajar en ningún grupo. Su única conexión con el mundo...

    Director: Valeria Migliassi Collins

    Género: Acción

    Actores: Zachery Ty Bryan

  • Rápido y Furioso 8 (2017) HD 1080p Latino – CMHDD

    Rápido y Furioso 8 (2017) HD 1080p Latino – CMHDD

    2017
    Rápido y Furioso 8 (2017) HD 1080p Latino – CMHDD

    0.0 2h 16m 2017

    La carrera ha comenzado. Dom Toretto y su equipo volverán en esta ocasión con más ganas de guerra...

    Director: Spiro Razatos

    Género: Acción

    Actores: Zachary Vazquez

Comentarios 1
  • ocpgaiden - 18 mayo, 2020

    Gracias por la pelicula, saludos