×

¿Problemas para descargar con Mozilla, EDGE? Deshabilita la opción "Abrir vinculos en una pestaña nueva" tal como lo muestra ésta imagen.

Invasores (2007) REMUX 1080p Latino

252 vistas

Información de Invasores (2007) REMUX 1080p Latino

Datos de la película

  • Calidad: Full 1080p
  • Audio: Se especifica abajo de la Sinopsis
  • Subtitulos: Español Latino PGS - Ingles PGS
  • Resolución: 1920x1080p
  • Formato: MKV
  • Codec: H.264
  • Encoder: CinefiloCool
  • Mediainfo: Clic para Mostrar Datos Ver
  • Invasores (2007) REMUX 1080p Latino-CMHDD.mkv
    Format                      : Matroska
    Format version              : Version 4
    File size                   : 13.4 GiB
    Duration                    : 1 h 39 min
    Overall bit rate mode       : Variable
    Overall bit rate            : 19.3 Mb/s
    Movie name                  : The Invasion (2007) CinemaniaHDD.Net
    Encoded date                : UTC 2023-06-18 05:50:18
    Writing application         : mkvmerge v56.1.0 ('My Friend') 64-bit
    Writing library             : libebml v1.4.2 + libmatroska v1.6.4
    Attachments                 : CINEMANIAHD.png

    Video
    ID                          : 1
    Format                      : VC-1
    Format profile              : Advanced@L3
    Codec ID                    : V_MS/VFW/FOURCC / WVC1
    Codec ID/Hint               : Microsoft
    Duration                    : 1 h 39 min
    Bit rate                    : 16.7 Mb/s
    Width                       : 1 920 pixels
    Height                      : 1 080 pixels
    Display aspect ratio        : 16:9
    Frame rate mode             : Constant
    Frame rate                  : 23.976 (24000/1001) FPS
    Color space                 : YUV
    Chroma subsampling          : 4:2:0
    Bit depth                   : 8 bits
    Scan type                   : Progressive
    Compression mode            : Lossy
    Bits/(Pixel*Frame)          : 0.335
    Stream size                 : 11.6 GiB (86%)
    Title                       : REMUX HD1080p [CinemaniaHDD]
    Default                     : Yes
    Forced                      : No

    Audio #1
    ID                          : 2
    Format                      : AC-3
    Format/Info                 : Audio Coding 3
    Commercial name             : Dolby Digital
    Codec ID                    : A_AC3
    Duration                    : 1 h 39 min
    Bit rate mode               : Constant
    Bit rate                    : 384 kb/s
    Channel(s)                  : 6 channels
    Channel layout              : L R C LFE Ls Rs
    Sampling rate               : 48.0 kHz
    Frame rate                  : 31.250 FPS (1536 SPF)
    Compression mode            : Lossy
    Stream size                 : 273 MiB (2%)
    Title                       : Español Latino [CinemaniaHDD]
    Language                    : Spanish
    Service kind                : Complete Main
    Default                     : Yes
    Forced                      : No

    Audio #2
    ID                          : 3
    Format                      : MLP FBA
    Format/Info                 : Meridian Lossless Packing FBA
    Commercial name             : Dolby TrueHD
    Codec ID                    : A_TRUEHD
    Duration                    : 1 h 39 min
    Bit rate mode               : Variable
    Bit rate                    : 1 550 kb/s
    Maximum bit rate            : 3 057 kb/s
    Channel(s)                  : 6 channels
    Channel layout              : L R C LFE Ls Rs
    Sampling rate               : 48.0 kHz
    Frame rate                  : 1 200.000 FPS (40 SPF)
    Compression mode            : Lossless
    Stream size                 : 1.08 GiB (8%)
    Title                       : Ingles [CinemaniaHDD]
    Language                    : English
    Default                     : No
    Forced                      : No

    Audio #3
    ID                          : 4
    Format                      : AC-3
    Format/Info                 : Audio Coding 3
    Commercial name             : Dolby Digital
    Codec ID                    : A_AC3
    Duration                    : 1 h 39 min
    Bit rate mode               : Constant
    Bit rate                    : 640 kb/s
    Channel(s)                  : 6 channels
    Channel layout              : L R C LFE Ls Rs
    Sampling rate               : 48.0 kHz
    Frame rate                  : 31.250 FPS (1536 SPF)
    Compression mode            : Lossy
    Stream size                 : 455 MiB (3%)
    Title                       : Ingles AC3 [CinemaniaHDD]
    Language                    : English
    Service kind                : Complete Main
    Default                     : No
    Forced                      : No

    Text #1
    ID                          : 5
    Format                      : PGS
    Muxing mode                 : zlib
    Codec ID                    : S_HDMV/PGS
    Codec ID/Info               : Picture based subtitle format used on BDs/HD-DVDs
    Duration                    : 1 h 38 min
    Bit rate                    : 34.1 kb/s
    Count of elements           : 2336
    Stream size                 : 24.0 MiB (0%)
    Title                       : Español-PGS [CinemaniaHDD]
    Language                    : Spanish
    Default                     : No
    Forced                      : No

    Text #2
    ID                          : 6
    Format                      : PGS
    Muxing mode                 : zlib
    Codec ID                    : S_HDMV/PGS
    Codec ID/Info               : Picture based subtitle format used on BDs/HD-DVDs
    Duration                    : 1 h 38 min
    Bit rate                    : 33.1 kb/s
    Count of elements           : 2292
    Stream size                 : 23.3 MiB (0%)
    Title                       : Ingles-PGS [CinemaniaHDD]
    Language                    : English
    Default                     : No
    Forced                      : No

    Text #3
    ID                          : 7
    Format                      : UTF-8
    Codec ID                    : S_TEXT/UTF8
    Codec ID/Info               : UTF-8 Plain Text
    Duration                    : 1 h 31 min
    Bit rate                    : 0 b/s
    Count of elements           : 8
    Stream size                 : 152 Bytes (0%)
    Title                       : Forzados-SRT [CinemaniaHDD]
    Language                    : Spanish
    Default                     : Yes
    Forced                      : No

    Text #4
    ID                          : 8
    Format                      : UTF-8
    Codec ID                    : S_TEXT/UTF8
    Codec ID/Info               : UTF-8 Plain Text
    Duration                    : 1 h 32 min
    Bit rate                    : 65 b/s
    Count of elements           : 1180
    Stream size                 : 44.4 KiB (0%)
    Title                       : Español-SRT [CinemaniaHDD]
    Language                    : Spanish
    Default                     : No
    Forced                      : No

    Menu
    00:00:00.000                : 00:00:00.000
    00:01:46.106                : 00:01:46.106
    00:05:44.010                : 00:05:44.010
    00:10:09.275                : 00:10:09.275
    00:14:09.682                : 00:14:09.682
    00:16:23.816                : 00:16:23.816
    00:19:08.481                : 00:19:08.481
    00:21:12.271                : 00:21:12.271
    00:23:51.430                : 00:23:51.430
    00:29:23.762                : 00:29:23.762
    00:33:12.324                : 00:33:12.324
    00:36:53.044                : 00:36:53.044
    00:40:51.783                : 00:40:51.783
    00:44:46.684                : 00:44:46.684
    00:49:06.110                : 00:49:06.110
    00:53:16.527                : 00:53:16.527
    00:59:30.901                : 00:59:30.901
    01:03:45.155                : 01:03:45.155
    01:07:41.224                : 01:07:41.224
    01:12:24.840                : 01:12:24.840
    01:15:21.183                : 01:15:21.183
    01:19:04.740                : 01:19:04.740
    01:20:40.335                : 01:20:40.335
    01:23:35.510                : 01:23:35.510
    01:26:42.030                : 01:26:42.030
    01:28:48.490                : 01:28:48.490
    01:32:21.369                : 01:32:21.369

  • Peso: 13.4 GiB

Sinopsis

Descargar Invasores (2007) REMUX 1080p Latino. Remake de «La invasión de los ladrones de cuerpos». Tras la catástrofe de un transbordador espacial que se estrella contra la Tierra, una misteriosa epidemia comienza a alterar el comportamiento de los seres humanos. Una psiquiatra de Washington descubre junto con varios científicos, que el origen de la epidemia es extraterrestre. Entonces, en una carrera contra reloj para no ser «infectada», deberá luchar para proteger a su hijo, ya que es posible que él sea la clave para detener la creciente invasión.

Audio Español Latino AC3 5.1 HMax – Ingles THD 5.1 + AC3 5.1 Bluray

Ficha técnica

Video trailer de la película

Enlaces de descarga

Rip de Bluray

Descargar Invasores (2007) REMUX 1080p Latino


Aportes de DPeliculasHDmega la pass es:dpeliculashdmega.org Aportes de CinemaniaHD la pass es:cinemaniahdd.com Aportes recientes:cinemaniahdd.net

Películas relacionadas

descargar Invasores (2007) REMUX 1080p Latino Full 1080p 1080p gratis, Invasores (2007) REMUX 1080p Latino Full 1080p mega 1 link, Invasores (2007) REMUX 1080p Latino Full 1080p pelicula completa, descargar Invasores (2007) REMUX 1080p Latino Full 1080p gratis en mega.

Invasores (2007) REMUX 1080p Latino pelicula full hd, Invasores (2007) REMUX 1080p Latino mega latino, Invasores (2007) REMUX 1080p Latino 4k latino, Invasores (2007) REMUX 1080p Latino pelicula completa, Invasores (2007) REMUX 1080p Latino descargar gratis, descargar Invasores (2007) REMUX 1080p Latino pelicula latino, Invasores (2007) REMUX 1080p Latino 1 link mega, Invasores (2007) REMUX 1080p Latino 1 link google drive, Invasores (2007) REMUX 1080p Latino hd 1080p latino.
Comentarios 0