×

¿Problemas para descargar con Mozilla, EDGE? Deshabilita la opción "Abrir vinculos en una pestaña nueva" tal como lo muestra ésta imagen.

The Intruder (2019) REMUX 1080p Latino

569 vistas

Información de The Intruder (2019) REMUX 1080p Latino

the intruder el ocupante 55324 poster

Datos de la película

  • Calidad: Full 1080p
  • Audio: Español Latino AC3 5.1 BLURAY - Ingles DTS 5.1 BLURAY
  • Subtitulos: Español Latino PGS - Ingles PGS
  • Resolución: 1920x1080p
  • Formato: MKV
  • Codec: H.264
  • Encoder: CinefiloCool
  • Mediainfo: Clic para Mostrar Datos Ver
  • Intruso (2019) REMUX 1080p Latino-CMHDD.mkv
    Format                      : Matroska
    Format version              : Version 4
    File size                   : 19.8 GiB
    Duration                    : 1 h 42 min
    Overall bit rate mode       : Variable
    Overall bit rate            : 27.8 Mb/s
    Movie name                  : Intruso (2019) CinemaniaHDD.Net
    Encoded date                : UTC 2019-07-21 07:32:40
    Writing application         : mkvmerge v35.0.0 ('All The Love In The World') 64-bit
    Writing library             : libebml v1.3.9 + libmatroska v1.5.2
    Attachments                 : CINEMANIAHD.png

    Video
    ID                          : 1
    Format                      : AVC
    Format/Info                 : Advanced Video Codec
    Format profile              : High@L4.1
    Format settings             : CABAC / 2 Ref Frames
    Format settings, CABAC      : Yes
    Format settings, ReFrames   : 2 frames
    Format settings, GOP        : M=1, N=10
    Codec ID                    : V_MPEG4/ISO/AVC
    Duration                    : 1 h 42 min
    Bit rate mode               : Variable
    Bit rate                    : 24.9 Mb/s
    Width                       : 1 920 pixels
    Height                      : 1 080 pixels
    Display aspect ratio        : 16:9
    Frame rate mode             : Constant
    Frame rate                  : 23.976 (24000/1001) FPS
    Color space                 : YUV
    Chroma subsampling          : 4:2:0
    Bit depth                   : 8 bits
    Scan type                   : Progressive
    Bits/(Pixel*Frame)          : 0.502
    Stream size                 : 17.8 GiB (90%)
    Title                       : Full HD1080p [REMUX]
    Default                     : Yes
    Forced                      : No

    Audio #1
    ID                          : 2
    Format                      : AC-3
    Format/Info                 : Audio Coding 3
    Commercial name             : Dolby Digital
    Codec ID                    : A_AC3
    Duration                    : 1 h 42 min
    Bit rate mode               : Constant
    Bit rate                    : 640 kb/s
    Channel(s)                  : 6 channels
    Channel layout              : L R C LFE Ls Rs
    Sampling rate               : 48.0 kHz
    Frame rate                  : 31.250 FPS (1536 SPF)
    Bit depth                   : 16 bits
    Compression mode            : Lossy
    Delay relative to video     : 24 ms
    Stream size                 : 467 MiB (2%)
    Title                       : AC3_5.1_Bluray_Esp
    Language                    : Spanish
    Service kind                : Complete Main
    Default                     : Yes
    Forced                      : Yes

    Audio #2
    ID                          : 3
    Format                      : DTS XLL
    Format/Info                 : Digital Theater Systems
    Commercial name             : DTS-HD Master Audio
    Codec ID                    : A_DTS
    Duration                    : 1 h 42 min
    Bit rate mode               : Variable
    Bit rate                    : 2 166 kb/s
    Channel(s)                  : 6 channels
    Channel layout              : C L R Ls Rs LFE
    Sampling rate               : 48.0 kHz
    Frame rate                  : 93.750 FPS (512 SPF)
    Bit depth                   : 16 bits
    Compression mode            : Lossless
    Stream size                 : 1.54 GiB (8%)
    Title                       : DTS-HD_5.1_Bluray_Eng
    Language                    : English
    Default                     : No
    Forced                      : No

    Text #1
    ID                          : 4
    Format                      : PGS
    Muxing mode                 : zlib
    Codec ID                    : S_HDMV/PGS
    Codec ID/Info               : Picture based subtitle format used on BDs/HD-DVDs
    Duration                    : 1 h 40 min
    Bit rate                    : 29.1 kb/s
    Count of elements           : 2362
    Stream size                 : 21.0 MiB (0%)
    Title                       : Sub_Esp [PGS]
    Language                    : Spanish
    Default                     : No
    Forced                      : No

    Text #2
    ID                          : 5
    Format                      : PGS
    Muxing mode                 : zlib
    Codec ID                    : S_HDMV/PGS
    Codec ID/Info               : Picture based subtitle format used on BDs/HD-DVDs
    Duration                    : 1 h 34 min
    Bit rate                    : 37.1 kb/s
    Count of elements           : 2728
    Stream size                 : 25.2 MiB (0%)
    Title                       : Sub_Eng [PGS]
    Language                    : English
    Default                     : No
    Forced                      : No

    Text #3
    ID                          : 6
    Format                      : UTF-8
    Codec ID                    : S_TEXT/UTF8
    Codec ID/Info               : UTF-8 Plain Text
    Duration                    : 1 h 34 min
    Bit rate                    : 51 b/s
    Count of elements           : 1178
    Stream size                 : 36.0 KiB (0%)
    Title                       : Sub_Esp
    Language                    : Spanish
    Default                     : No
    Forced                      : No

    Menu
    00:00:00.000                : :Chapter 01
    00:03:35.590                : :Chapter 02
    00:11:51.460                : :Chapter 03
    00:16:14.264                : :Chapter 04
    00:20:10.792                : :Chapter 05
    00:25:31.196                : :Chapter 06
    00:30:50.139                : :Chapter 07
    00:36:18.509                : :Chapter 08
    00:40:45.734                : :Chapter 09
    00:45:30.853                : :Chapter 10
    00:50:15.178                : :Chapter 11
    00:56:59.249                : :Chapter 12
    01:02:12.270                : :Chapter 13
    01:08:56.507                : :Chapter 14
    01:14:16.285                : :Chapter 15
    01:23:50.025                : :Chapter 16

  • Peso: 19.8 GiB

Sinopsis

Descargar The Intruder [Intruso] (2019) REMUX 1080p Latino. Un joven matrimonio compra una preciosa casa con varias acres de terreno en Napa Valley y descubren que el hombre al que se la compraron se niega a abandonar la propiedad.

Ficha técnica

  • Titulo original: The Intruder
  • Fecha de lanzamiento: 03-05-2019 (United States of America)
  • Director: Deon Taylor
  • Género: Drama, Remux, Suspenso

Video trailer de la película

Enlaces de descarga

Rip de Bluray

Descargar The Intruder (2019) REMUX 1080p Latino




Aportes de DPeliculasHDmega la pass es:dpeliculashdmega.org Aportes de CinemaniaHD la pass es:cinemaniahdd.com Aportes recientes:cinemaniahdd.net
Guardado en : Drama , Remux , Suspenso

Películas relacionadas

descargar The Intruder (2019) REMUX 1080p Latino Full 1080p 1080p gratis, The Intruder (2019) REMUX 1080p Latino Full 1080p mega 1 link, The Intruder (2019) REMUX 1080p Latino Full 1080p pelicula completa, descargar The Intruder (2019) REMUX 1080p Latino Full 1080p gratis en mega.

The Intruder (2019) REMUX 1080p Latino pelicula full hd, The Intruder (2019) REMUX 1080p Latino mega latino, The Intruder (2019) REMUX 1080p Latino 4k latino, The Intruder (2019) REMUX 1080p Latino pelicula completa, The Intruder (2019) REMUX 1080p Latino descargar gratis, descargar The Intruder (2019) REMUX 1080p Latino pelicula latino, The Intruder (2019) REMUX 1080p Latino 1 link mega, The Intruder (2019) REMUX 1080p Latino 1 link google drive, The Intruder (2019) REMUX 1080p Latino hd 1080p latino.
Comentarios 0